Вы используете незарегистрированную версию компонента "Вкладки"!

Поиск

(Free Jazz) Ken Vandermark's Sound In Action Trio - Design In Time - 1999, FLAC (image+.cue), lossless

(Free Jazz) Ken Vandermark's Sound In Action Trio - Design In Time - 1999, FLAC (image+.cue), lossless
Треклист:
Ken Vandermark's Sound In Action Trio / Design In Time
Жанр: Free Jazz
Страна-производитель диска: USA
Год издания диска: 1999
Издатель (лейбл): Delmark
Номер по каталогу: DE-516
Страна: USA
Аудиокодек: FLAC (*.flac)
Тип рипа: image+.cue
Битрейт аудио: lossless
Продолжительность: 1:10:28
Источник (релизер): CD
Наличие сканов в содержимом раздачи: да
Треклист:
01 - Law Years (Ornette Coleman) 8:21
02 - Sounds And Something Else (Sun Ra) 6:10
03 - One More Once (Ken Vandermark) 6:02
04 - Well Suited (Ken Vandermark) 7:17
05 - Cut To Fit (Ken Vandermark) 5:09
06 - Angels (Albert Ayler) 7:04
07 - Feet Music (Ornette Coleman) 6:32
08 - The Thing (Don Cherry) 5:25
09 - Top Shelf (Ken Vandermark) 5:30
10 - Green Chimneys (Thelonious Monk) 6:07
11 - Peace (Ornette Coleman) 6:13
 
Лог создания рипа
Exact Audio Copy V1.0 beta 2 from 29. April 2011
EAC extraction logfile from 15. August 2011, 23:57
Ken Vandermark's Sound in Action Trio / Design In Time
Used drive : Optiarc DVD RW AD-7170S Adapter: 1 ID: 1
Read mode : Secure
Utilize accurate stream : Yes
Defeat audio cache : Yes
Make use of C2 pointers : No
Read offset correction : 48
Overread into Lead-In and Lead-Out : No
Fill up missing offset samples with silence : Yes
Delete leading and trailing silent blocks : No
Null samples used in CRC calculations : Yes
Used interface : Native Win32 interface for Win NT & 2000
Used output format : User Defined Encoder
Selected bitrate : 32 kBit/s
Quality : High
Add ID3 tag : No
Command line compressor : C:\Program Files\FLAC\flac.exe
Additional command line options : -V -8 -T "Date=%year%" -T "Genre=%genre%" %source%
TOC of the extracted CD
Track | Start | Length | Start sector | End sector
---------------------------------------------------------
1 | 0:00.00 | 8:24.72 | 0 | 37871
2 | 8:24.72 | 6:13.58 | 37872 | 65904
3 | 14:38.55 | 6:05.28 | 65905 | 93307
4 | 20:44.08 | 7:21.11 | 93308 | 126393
5 | 28:05.19 | 5:13.54 | 126394 | 149922
6 | 33:18.73 | 7:08.16 | 149923 | 182038
7 | 40:27.14 | 6:35.30 | 182039 | 211693
8 | 47:02.44 | 5:26.71 | 211694 | 236214
9 | 52:29.40 | 5:34.14 | 236215 | 261278
10 | 58:03.54 | 6:10.67 | 261279 | 289095
11 | 64:14.46 | 6:13.31 | 289096 | 317101
Range status and errors
Selected range
Filename C:\Documents and Settings\User\Мои документы\Ken Vandermark's Sound in Action Trio - Design In Time (1999)\Ken Vandermark's Sound in Action Trio - Design In Time.wav
Peak level 100.0 %
Extraction speed 5.7 X
Range quality 99.9 %
Test CRC BCE810F4
Copy CRC BCE810F4
Copy OK
No errors occurred
AccurateRip summary
Track 1 accurately ripped (confidence 6) [153071E9] (AR v1)
Track 2 accurately ripped (confidence 6) [A74976E5] (AR v1)
Track 3 accurately ripped (confidence 6) [2ED99E64] (AR v1)
Track 4 accurately ripped (confidence 6) [B3D5BE8B] (AR v1)
Track 5 accurately ripped (confidence 6) [2D246A19] (AR v1)
Track 6 accurately ripped (confidence 6) [88CE8D93] (AR v1)
Track 7 accurately ripped (confidence 6) [37CD1F8F] (AR v1)
Track 8 accurately ripped (confidence 6) [92CF4EE4] (AR v1)
Track 9 accurately ripped (confidence 6) [EE3756C0] (AR v1)
Track 10 accurately ripped (confidence 6) [07B97824] (AR v1)
Track 11 accurately ripped (confidence 5) [64DF1957] (AR v1)
All tracks accurately ripped
End of status report
==== Log checksum 9BD238162C5C2D84488256860198939003F31BCFF40F713E4CAA9C88573F29EE ====
 
Содержание индексной карты (.CUE)
REM GENRE Jazz
REM DATE 1999
REM DISCID 9710840B
REM COMMENT "ExactAudioCopy v1.0b2"
PERFORMER "Ken Vandermark's Sound in Action Trio"
TITLE "Design In Time"
FILE "Ken Vandermark's Sound in Action Trio - Design In Time.flac" WAVE
TRACK 01 AUDIO
TITLE "Law years"
PERFORMER "Ken Vandermark's Sound in Action Trio"
INDEX 01 00:00:00
TRACK 02 AUDIO
TITLE "Sounds and something else"
PERFORMER "Ken Vandermark's Sound in Action Trio"
INDEX 00 08:21:15
INDEX 01 08:24:72
TRACK 03 AUDIO
TITLE "One more once"
PERFORMER "Ken Vandermark's Sound in Action Trio"
INDEX 00 14:34:73
INDEX 01 14:38:55
TRACK 04 AUDIO
TITLE "Well suited"
PERFORMER "Ken Vandermark's Sound in Action Trio"
INDEX 00 20:41:33
INDEX 01 20:44:08
TRACK 05 AUDIO
TITLE "Cut to fit"
PERFORMER "Ken Vandermark's Sound in Action Trio"
INDEX 00 28:01:37
INDEX 01 28:05:19
TRACK 06 AUDIO
TITLE "Angels"
PERFORMER "Ken Vandermark's Sound in Action Trio"
INDEX 00 33:15:16
INDEX 01 33:18:73
TRACK 07 AUDIO
TITLE "Feet music"
PERFORMER "Ken Vandermark's Sound in Action Trio"
INDEX 00 40:23:32
INDEX 01 40:27:14
TRACK 08 AUDIO
TITLE "The thing"
PERFORMER "Ken Vandermark's Sound in Action Trio"
INDEX 00 46:59:70
INDEX 01 47:02:44
TRACK 09 AUDIO
TITLE "Top shelf"
PERFORMER "Ken Vandermark's Sound in Action Trio"
INDEX 00 52:28:13
INDEX 01 52:29:40
TRACK 10 AUDIO
TITLE "Green chimneys"
PERFORMER "Ken Vandermark's Sound in Action Trio"
INDEX 00 57:59:72
INDEX 01 58:03:54
TRACK 11 AUDIO
TITLE "Peace"
PERFORMER "Ken Vandermark's Sound in Action Trio"
INDEX 00 64:10:64
INDEX 01 64:14:46
 
Доп. информация
Sound in action. These three words speak volumes about this trio’s trust in the currencies of movement and momentum. One look at the instrumentation and it’s obvious that the rhythmic possibilities for the group go well beyond the parameters prescribed by usual jazz instrumentation. Two drum kits, one reed; but not just any two drummers and definitely not your run-of-the-mill reed player. Ken Vandermark’s musical directions have long been built on restless and prolific experimentation, a constant forward velocity of ideas and endeavors. This project is no different in the degree of creativity and initiative that went into it’s realization. In many ways it mirrors musically the momentum of Vandermark’s own imagination. Where it veers off in brilliantly unpredictable directions is in the uniquely conceived interactions between it’s three participants.
Mulvenna is often Vandermark’s drummer of choice, showing up behind the trap set in a number of his numerous groups. His touch on the skins can command a quiet resolve or a boisterous clamor with equal facility. Barry’s presence is the real surprise. An Arkestra alumnus whose absence from the recording studio has fortunately not been followed by sabbatical from playing, Barry’s percussive precision is legendary. Best of all his role in this trio is as a fully integrated member rather than simply a prestigious guest star and he and Mulvenna (who it turns out, is also his sometime student) spin a web of rhythms that is unearthly in its symmetry. Given the solid rhythmic foundry the two afford him, Vandermark is free to cut loose at will on both tenor and clarinet, but unexpectedly he often opts on the side of restraint. His decision is a shrewd move and rightly places the textural emphasis on the intricate interplay between all three players, particularly the drummers.
The compositions are an eclectic bag brimming with both originals and carefully conceived readings of post-bop classics from the likes of Ra, Ayler, Monk and Coleman. As is often his practice Vandermark dedicates each of the original pieces to one of the myriad musicians he admires- in this case and for obvious reasons they’re all drummers. The trio project itself is in many ways a dedicatory gesture to Barry and his lasting, if lesser known, influence on creative improvised music. This group’s longevity may be uncertain given the sometimes fickle nature of Vandermark’s muse, but based on this debut recording Delmark would be well served by organizing their return engagement to the recording studio so that listeners will have even more to enjoy.
Recorded: July 6 & 7, 1999, Airwave Studios, Chicago, IL.
 
Об исполнителе (группе)
Ken Vandermark was recognized for an astounding decade of music-making by receiving the prestigious MacArthur Foundation "genius" grant. He helped to revive Chicago's reputation as a hub of improvised music and to attract a new, young audience to adventurous jazz nationwide. Vandermark has participated in many projects, including: Vandermark Quartet, NRG Ensemble, Steam, DKV Trio, and Vandermark 5. So it should come as no surprise that his debut as leader on Delmark finds him fronting another new project. While forging a sound of the future Vandermark has retained a healthy respect for his musical elders, and the Sound in Action Trio (featuring Vandermark on tenor sax and clarinet) is built around one of them; former Sun Ra drummer Robert Barry.
 
Об альбоме (сборнике)
Except in Chicago, where a tiresome chauvinism permeates the flacking of its new jazz and improvised music scene, the awarding of a MacArthur fellowship to Ken Vandermark in 1999 was met with utter surprise, if not jibes about an inside job at the Chicago-based foundation. Certainly, Vandermark has done the hard work necessary to build a thriving scene in Chicago, and juggle a gaggle of bands and projects to create high international name recognition for himself and his cohorts. Yet, next to previous MacArthur fellows like Max Roach and Cecil Taylor, Vandermark is a youngblood, an impression reinforced by his flat-topped image of '90s cool and a discography roughly split between obviously durable work and recordings of mere passing interest.
Design in Time, however, has the gravity Vandermark now needs to rebuff the skeptics. Much of the initial buzz surrounding this album centers on Robert Barry, drummer for the Sun Ra Arkestra in the '50s, whose presence extends the laudable thread in Vandermark's activities of working with elders of the music like Fred Anderson and Joe McPhee. Yet, the real story is Vandermark. If playing solo is, as often stated, like working a high-wire without a net, venturing out with arrangements for a single horn and two drummers adds a bed of spikes to the simile. (The other percussionist is frequent Vandermark collaborator Tim Mulvenna, who has the cross-rhythm tag-team thing with Barry down cold.) To compound the danger, Vandermark calls a taxing lot of chestnuts and minor classics-three by Ornette Coleman, and one each by Thelonious Monk, Ra, Albert Ayler, and Don Cherry-in addition to four engaging compositions of his own.
Vandermark's command of the album's titular proposition elevates the program far above a blowing session or an off-center spin on repertory. It is interesting and encouraging how this manifests on tenor outings like Coleman's "Law Years" and Vandermark's "One More Once" as a Sonny Rollins-like ease in moving from one idea to the next. Vandermark's growing sophistication as a clarinetist, evidenced by the airy, dancing quality at the top of Cherry's "The Thing" and the nonchalance of "Peace," provides a strong, contrasting palette to the program. Subsequently, ecstatic forays like Ayler's "Angels" are more cogent than on Vandermark-led or co-led dates where full-bore intensity constitutes the bulk of the program.
Still, the more deliberate performances-particularly originals like the lulled, lyrical "Well Suited" and the sprightly shuffling "Cut to Fit"-argue best that Vandermark's award was a prescient act instead of a case of trend spotting, or something more jaundiced.
 
Состав
Ken Vandermark - tenor saxophone, clarinet
Tim Mulvenna - drums (left channel)
Robert Barry - drums (right channel)
Any questions -> support@pro-jazz.com. По всем вопросам пишите -> support@pro-jazz.com
16:07
137
Нет комментариев. Ваш будет первым!