Вы используете незарегистрированную версию компонента "Вкладки"!

Поиск

(Avant-Garde, Modern Composition, Samplework) David Shea - Prisoner - 1994, FLAC (tracks+.cue), lossless

(Avant-Garde, Modern Composition, Samplework) David Shea - Prisoner - 1994, FLAC (tracks+.cue), lossless
Треклист:
David Shea / Prisoner
Жанр: Avant-Garde, Modern Composition, Samplework
Страна-производитель диска: Belgium
Год издания диска: 1994
Издатель (лейбл): Sub Rosa
Номер по каталогу: SR73
Страна: US
Аудиокодек: FLAC (*.flac)
Тип рипа: tracks+.cue
Битрейт аудио: lossless
Продолжительность: 54:24
Источник (релизер): what.cd
Наличие сканов в содержимом раздачи: нет
Треклист:
1 #1 3:47
2 #2 4:01
3 #3 6:30
4 #4 12:25
5 #5 9:12
6 #6 8:14
7 #7 9:54
 
Лог создания рипа
X Lossless Decoder version 20100711 (120.5)
XLD extraction logfile from 2010-07-30 16:44:02 -0400
David Shea / Prisoner
Used drive : MATSHITA DVD-R UJ-85J (revision FM0S)
Use cdparanoia mode : YES (CDParanoia III 10.2 engine)
Disable audio cache : OK for the drive with cache less than 2750KB
Make use of C2 pointers : NO
Read offset correction : 102
Max retry count : 100
Gap status : Analyzed, Appended
TOC of the extracted CD
Track | Start | Length | Start sector | End sector
---------------------------------------------------------
1 | 00:00:00 | 03:46:42 | 0 | 16991
2 | 03:46:42 | 04:01:08 | 16992 | 35074
3 | 07:47:50 | 06:32:57 | 35075 | 64531
4 | 14:20:32 | 12:34:53 | 64532 | 121134
5 | 26:55:10 | 09:14:22 | 121135 | 162706
6 | 36:09:32 | 08:16:60 | 162707 | 199966
7 | 44:26:17 | 09:58:40 | 199967 | 244856
All Tracks
Album gain : -3.13 dB
Peak : 1.000000
Track 01
Filename : /Volumes/Users/scottems/Music/what/David Shea - 1994 - Prisoner/01 #1.flac
Pre-gap length : 00:02:00
Track gain : 0.93 dB
Peak : 0.647095
CRC32 hash (test run) : 4B731C62
CRC32 hash : 4B731C62
CRC32 hash (skip zero) : B095E8C0
AccurateRip signature : 4DD7B7FB
->Accurately ripped! (confidence 1)
Statistics
Read error : 0
Skipped (treated as error) : 0
Edge jitter error (maybe fixed) : 0
Atom jitter error (maybe fixed) : 0
Drift error (maybe fixed) : 0
Dropped bytes error (maybe fixed) : 0
Duplicated bytes error (maybe fixed) : 0
Inconsistency in error sectors : 0
Track 02
Filename : /Volumes/Users/scottems/Music/what/David Shea - 1994 - Prisoner/02 #2.flac
Track gain : -5.08 dB
Peak : 0.861847
CRC32 hash (test run) : 6A19B24D
CRC32 hash : 6A19B24D
CRC32 hash (skip zero) : F33F6A7F
AccurateRip signature : 87306233
->Accurately ripped! (confidence 1)
Statistics
Read error : 0
Skipped (treated as error) : 0
Edge jitter error (maybe fixed) : 0
Atom jitter error (maybe fixed) : 0
Drift error (maybe fixed) : 0
Dropped bytes error (maybe fixed) : 0
Duplicated bytes error (maybe fixed) : 0
Inconsistency in error sectors : 0
Track 03
Filename : /Volumes/Users/scottems/Music/what/David Shea - 1994 - Prisoner/03 #3.flac
Track gain : -3.26 dB
Peak : 1.000000
CRC32 hash (test run) : 0E902D8F
CRC32 hash : 0E902D8F
CRC32 hash (skip zero) : 45B30EB3
AccurateRip signature : 338E472C
->Accurately ripped! (confidence 1)
Statistics
Read error : 0
Skipped (treated as error) : 0
Edge jitter error (maybe fixed) : 0
Atom jitter error (maybe fixed) : 0
Drift error (maybe fixed) : 0
Dropped bytes error (maybe fixed) : 0
Duplicated bytes error (maybe fixed) : 0
Inconsistency in error sectors : 0
Track 04
Filename : /Volumes/Users/scottems/Music/what/David Shea - 1994 - Prisoner/04 #4.flac
Pre-gap length : 00:01:70
Track gain : -5.11 dB
Peak : 0.903839
CRC32 hash (test run) : CED4232E
CRC32 hash : CED4232E
CRC32 hash (skip zero) : C9EDCFDF
AccurateRip signature : 58F11F29
->Accurately ripped! (confidence 1)
Statistics
Read error : 0
Skipped (treated as error) : 0
Edge jitter error (maybe fixed) : 0
Atom jitter error (maybe fixed) : 0
Drift error (maybe fixed) : 0
Dropped bytes error (maybe fixed) : 0
Duplicated bytes error (maybe fixed) : 0
Inconsistency in error sectors : 0
Track 05
Filename : /Volumes/Users/scottems/Music/what/David Shea - 1994 - Prisoner/05 #5.flac
Pre-gap length : 00:02:00
Track gain : -0.29 dB
Peak : 1.000000
CRC32 hash (test run) : F9E09547
CRC32 hash : F9E09547
CRC32 hash (skip zero) : 3DFC39D3
AccurateRip signature : 7C57888D
->Accurately ripped! (confidence 1)
Statistics
Read error : 0
Skipped (treated as error) : 0
Edge jitter error (maybe fixed) : 0
Atom jitter error (maybe fixed) : 0
Drift error (maybe fixed) : 0
Dropped bytes error (maybe fixed) : 0
Duplicated bytes error (maybe fixed) : 0
Inconsistency in error sectors : 0
Track 06
Filename : /Volumes/Users/scottems/Music/what/David Shea - 1994 - Prisoner/06 #6.flac
Track gain : -4.51 dB
Peak : 1.000000
CRC32 hash (test run) : 1DD8651E
CRC32 hash : 1DD8651E
CRC32 hash (skip zero) : CF3B2C75
AccurateRip signature : 6F741443
->Accurately ripped! (confidence 1)
Statistics
Read error : 0
Skipped (treated as error) : 0
Edge jitter error (maybe fixed) : 0
Atom jitter error (maybe fixed) : 0
Drift error (maybe fixed) : 0
Dropped bytes error (maybe fixed) : 0
Duplicated bytes error (maybe fixed) : 0
Inconsistency in error sectors : 0
Track 07
Filename : /Volumes/Users/scottems/Music/what/David Shea - 1994 - Prisoner/07 #7.flac
Pre-gap length : 00:01:55
Track gain : 1.14 dB
Peak : 0.883057
CRC32 hash (test run) : 2D17DE7B
CRC32 hash : 2D17DE7B
CRC32 hash (skip zero) : 0663C4A6
AccurateRip signature : F8B4535F
->Accurately ripped! (confidence 1)
Statistics
Read error : 0
Skipped (treated as error) : 0
Edge jitter error (maybe fixed) : 0
Atom jitter error (maybe fixed) : 0
Drift error (maybe fixed) : 0
Dropped bytes error (maybe fixed) : 0
Duplicated bytes error (maybe fixed) : 0
Inconsistency in error sectors : 0
No errors occurred
End of status report
 
Содержание индексной карты (.CUE)
TITLE "Prisoner"
PERFORMER "David Shea"
REM GENRE "avant garde"
REM DATE 1994
REM DISCID 610CC007
REM REPLAYGAIN_ALBUM_GAIN -3.13 dB
REM REPLAYGAIN_ALBUM_PEAK 1.000000
FILE "01 #1.wav" WAVE
TRACK 01 AUDIO
TITLE "#1"
REM REPLAYGAIN_TRACK_GAIN 0.93 dB
REM REPLAYGAIN_TRACK_PEAK 0.647095
INDEX 01 00:00:00
FILE "02 #2.wav" WAVE
TRACK 02 AUDIO
TITLE "#2"
REM REPLAYGAIN_TRACK_GAIN -5.08 dB
REM REPLAYGAIN_TRACK_PEAK 0.861847
INDEX 01 00:00:00
FILE "03 #3.wav" WAVE
TRACK 03 AUDIO
TITLE "#3"
REM REPLAYGAIN_TRACK_GAIN -3.26 dB
REM REPLAYGAIN_TRACK_PEAK 1.000000
INDEX 01 00:00:00
TRACK 04 AUDIO
TITLE "#4"
REM REPLAYGAIN_TRACK_GAIN -5.11 dB
REM REPLAYGAIN_TRACK_PEAK 0.903839
INDEX 00 06:30:62
FILE "04 #4.wav" WAVE
INDEX 01 00:00:00
TRACK 05 AUDIO
TITLE "#5"
REM REPLAYGAIN_TRACK_GAIN -0.29 dB
REM REPLAYGAIN_TRACK_PEAK 1.000000
INDEX 00 12:32:53
FILE "05 #5.wav" WAVE
INDEX 01 00:00:00
FILE "06 #6.wav" WAVE
TRACK 06 AUDIO
TITLE "#6"
REM REPLAYGAIN_TRACK_GAIN -4.51 dB
REM REPLAYGAIN_TRACK_PEAK 1.000000
INDEX 01 00:00:00
TRACK 07 AUDIO
TITLE "#7"
REM REPLAYGAIN_TRACK_GAIN 1.14 dB
REM REPLAYGAIN_TRACK_PEAK 0.883057
INDEX 00 08:15:05
FILE "07 #7.wav" WAVE
INDEX 01 00:00:00
 
Лог проверки качества
d:\>d:\aucdtect -d/-m0 d:\zzz\*.wav
auCDtect: CD records authenticity detector, version 0.8.2
Copyright (c) 2004 Oleg Berngardt. All rights reserved.
Copyright (c) 2004 Alexander Djourik. All rights reserved.
------------------------------------------------------------
Processing file: [01. #1.wav]
------------------------------------------------------------
This track looks like CDDA with probability 100%
------------------------------------------------------------
Processing file: [02. #2.wav]
------------------------------------------------------------
This track looks like CDDA with probability 100%
------------------------------------------------------------
Processing file: [03. #3.wav]
------------------------------------------------------------
This track looks like CDDA with probability 100%
------------------------------------------------------------
Processing file: [04. #4.wav]
------------------------------------------------------------
This track looks like CDDA with probability 100%
------------------------------------------------------------
Processing file: [05. #5.wav]
------------------------------------------------------------
This track looks like CDDA with probability 100%
------------------------------------------------------------
Processing file: [06. #6.wav]
------------------------------------------------------------
This track looks like CDDA with probability 100%
------------------------------------------------------------
Processing file: [07. #7.wav]
------------------------------------------------------------
This track looks like CDDA with probability 100%
------------------------------------------------------------
Final Conclusion:
------------------------------------------------------------
These tracks looks like CDDA with probability 100%
Доп. информация:
 
Album Info
Recorded at Baby Monster Studios, NYC, Summer 1993.
Digital editing at Harmonic Ranch Studios.
Prisoner is one piece broken into seven parts. It is based on 'The Prisoner', the English BBC Television series, and uses the actions and issues of the seventeen episodes as general maps for creating musical events.
(P) + (C) 1994 Sub Rosa Cantus.
 
Состав
Drums, Percussion - Jim Pugliese
Electric Bass - Hideki Kato , Sebastian Steinberg (tracks: 7)
Guitar - Mark Ribot
Percussion [Brazilian] - Cyro Baptista (tracks: 5)
Piano - Lisa Crowder (tracks: 4)
Piano, Harp - Zeena Parkins
Piano, Organ, Sampler - Anthony Coleman
Producer, Composed By, Sampler, Piano, Jew's Harp [Jaw Harp], Harmonica - David Shea
Voice, Voice [Breath] - Caroline Marshall (tracks: 6)
По всем вопросам пишите личное сообщение пользователю M0p94ok.
16:07
194
Нет комментариев. Ваш будет первым!