Вы используете незарегистрированную версию компонента "Вкладки"!

Поиск

( free jazz) Kaoru Abe, Yoshizawa Motoharu - Nord, Abe Yoshizawa Duo '75 (1995, ALM Records), FLAC (tracks+.cue), lossless

( free jazz) Kaoru Abe, Yoshizawa Motoharu - Nord, Abe Yoshizawa Duo '75 (1995, ALM Records), FLAC (tracks+.cue), lossless
Треклист:


Kaoru Abe, Yoshizawa Motoharu
Nord, Abe Yoshizawa Duo '75 (1995, ALM Records)
Жанр: free jazz
Год выпуска: 1975
Издатель (лейбл):(ALM Records, URCD-5) (Japan) (CD)
Формат: FLAC (tracks+.cue)
Битрейт аудио: lossless
Продолжительность 54`33
Источник: what.cd, egrof
Kaoru Abe: alto saxophone
Motoharu Yoshizawa: bass (1, 3), cello (2)
Tracks 1 and 2 recorded by Yukio Kojima at Iruma Shimin Kaikan, October 16, 1975
Track 3 recorded live by Yukio Kojima at Aoyama Tower Hall, October 18, 1975
Released in 1995
Originally released in 1981 as an LP on ALM Records
http://www.japanimprov.com/indies/alm/nord.html

tracks
Duo Improvisation No. 1 (11:26)
Duo Improvisation No. 2 (12:59)
Duo Improvisation No. 3 (29:57)


 
.log
Exact Audio Copy V0.99 prebeta 5 from 4. May 2009
Отчёт EAC об извлечении, выполненном 15. января 2010, 13:54
Kaoru Abe/Motoharu Yoshizawa / Nord
Дисковод: Optiarc DVD RW AD-7590A Adapter: 1 ID: 0
Режим чтения : Достоверность
Использование точного потока : Да
Отключение кэша аудио : Нет
Использование указателей C2 : Нет
Коррекция смещения при чтении : 48
Способность читать области Lead-in и Lead-out : Нет
Заполнение пропущенных сэмплов тишиной : Да
Удаление блоков с тишиной в начале и конце : Нет
При вычислениях CRC использовались нулевые сэмплы : Да
Интерфейс : Встроенный Win32-интерфейс для Win NT/2000
Обработка зазоров : Не обнаружено, добавлено к предыдущему треку
Выходной формат : Пользовательский кодировщик
Выбранный битрейт : 1024 kBit/s
Качество : Высокий
Добавление ID3-тэга : Нет
Утилита сжатия : C:\Program Files\Exact Audio Copy\Flac\flac.exe
Дополнительные параметры : -6 -V -T "ARTIST=%a" -T "TITLE=%t" -T "ALBUM=%g" -T "DATE=%y" -T "TRACKNUMBER=%n" -T "GENRE=%m" -T "COMMENT=EAC FLAC -6" %s
TOC извлечённого CD
Трек | Старт | Длительность | Начальный сектор | Конечный сектор
---------------------------------------------------------------------
1 | 0:00.00 | 11:28.45 | 0 | 51644
2 | 11:28.45 | 13:04.41 | 51645 | 110485
3 | 24:33.11 | 29:59.60 | 110486 | 245470
Трек 1
Имя файла C:\Program Files\eMule1\Incoming\Kaoru Abe, Yoshizawa Motoharu - Nord - 1975_10\01. Kaoru Abe,Motoharu Yoshizawa – Duo Improvisation No. 1.wav
Пиковый уровень 98.9 %
Качество трека 100.0 %
CRC копии 912C3BD2
Трек не обнаружен в базе AccurateRip
Копирование... OK
Трек 2
Имя файла C:\Program Files\eMule1\Incoming\Kaoru Abe, Yoshizawa Motoharu - Nord - 1975_10\02. Kaoru Abe,Motoharu Yoshizawa – Duo Improvisation No. 2.wav
Пиковый уровень 100.0 %
Качество трека 100.0 %
CRC копии 480BD235
Трек не обнаружен в базе AccurateRip
Копирование... OK
Трек 3
Имя файла C:\Program Files\eMule1\Incoming\Kaoru Abe, Yoshizawa Motoharu - Nord - 1975_10\03. Kaoru Abe,Motoharu Yoshizawa – Duo Improvisation No. 3.wav
Пиковый уровень 98.2 %
Качество трека 99.9 %
CRC копии 9929E3D7
Трек не обнаружен в базе AccurateRip
Копирование... OK
Ни одного трека нет в базе AccurateRip
Ошибок не произошло
Конец отчёта
 
.cue
REM COMMENT "CUETools generated dummy CUE sheet"
PERFORMER "Kaoru Abe, Motoharu Yoshizawa"
TITLE "Nord: Abe Yoshizawa Duo '75"
REM DATE 1975
REM GENRE "Jazz"
FILE "01 - Duo Improvisation No. 1.flac" WAVE
TRACK 01 AUDIO
PERFORMER "Kaoru Abe, Motoharu Yoshizawa"
TITLE "Duo Improvisation No. 1"
INDEX 01 00:00:00
FILE "02 - Duo Improvisation No. 2.flac" WAVE
TRACK 02 AUDIO
PERFORMER "Kaoru Abe, Motoharu Yoshizawa"
TITLE "Duo Improvisation No. 2"
INDEX 01 00:00:00
FILE "03 - Duo Improvisation No. 3.flac" WAVE
TRACK 03 AUDIO
PERFORMER "Kaoru Abe, Motoharu Yoshizawa"
TITLE "Duo Improvisation No. 3"
INDEX 01 00:00:00
 
.accurip
[CUETools log; Date: 30/06/13 15:52:55; Version: 2.1.4]
[CTDB TOCID: hWp89gPK4wvt6adgtUaVG_gnWGQ-] disk not present in database.
[AccurateRip ID: 00063832-00159db9-220cc803] found.
Track [ CRC | V2 ] Status
01 [b90b9e72|d1f7289d] (1+0/1) Accurately ripped
02 [56a24ca9|5ed22062] (1+0/1) Accurately ripped
03 [2a17c737|ff6754d6] (1+0/1) Accurately ripped
Track Peak [ CRC32 ] [W/O NULL] [ LOG ]
-- 100.0 [91BB84F4] [7D8F6B6E]
01 98.9 [912C3BD2] [582BDEAA] CRC32
02 100.0 [480BD235] [69950216] CRC32
03 98.2 [9929E3D7] [B2B78A56] CRC32

другие релизы
Any questions -> support@pro-jazz.com. По всем вопросам пишите -> support@pro-jazz.com
15:36
163
Нет комментариев. Ваш будет первым!