Вы используете незарегистрированную версию компонента "Вкладки"!

Поиск

(Free Jazz) Kahil El'Zabar Trio - Love Outside of Dreams - 2002, FLAC (tracks+.cue), lossless

Треклист:
Kahil El'Zabar Trio - Love Outside of Dreams
Жанр: Free Jazz
Страна-производитель диска: USA
Год издания диска: 2002
Издатель (лейбл): Delmark
Номер по каталогу: 541
Аудио кодек: FLAC (*.flac)
Тип рипа: tracks+.cue
Битрейт аудио: lossless
Продолжительность: 61:33
Наличие сканов в содержимом раздачи: нет
Источник (релизер): avaxhome, thanks GatoMedio
Треклист:
1. Love Outside of Dreams
2. Song for a New South Africa
3. Song of Myself
4. Nia
5. Meditation for the Celestial Warriors (Dedicated To Fred Hopkins And Steve McCall)
6. The Ebullient Duke
7. Fred
8. One World Family
Исполнители:
Kahil El'Zabar - Drums, African Drums, Thumb Piano
David Murray - Tenor Saxophone, Bass Clarinet
Fred Hopkins - Bass
Recorded at the Riverside Studio in May 10-12, 1997.
 
Лог EAC
Exact Audio Copy V0.99 prebeta 5 from 4. May 2009
EAC extraction logfile from 14. September 2010, 17:32
Kahil El'Zabar Trio / Love Outside of Dreams
Used drive : HL-DT-STDVD-RAM GSA-H55N Adapter: 0 ID: 1
Read mode : Secure
Utilize accurate stream : Yes
Defeat audio cache : Yes
Make use of C2 pointers : No
Read offset correction : 102
Overread into Lead-In and Lead-Out : No
Fill up missing offset samples with silence : Yes
Delete leading and trailing silent blocks : No
Null samples used in CRC calculations : No
Used interface : Native Win32 interface for Win NT & 2000
Gap handling : Appended to previous track
Used output format : Internal WAV Routines
Sample format : 44.100 Hz; 16 Bit; Stereo
TOC of the extracted CD
Track | Start | Length | Start sector | End sector
---------------------------------------------------------
1 | 0:00.00 | 10:15.25 | 0 | 46149
2 | 10:15.25 | 9:38.15 | 46150 | 89514
3 | 19:53.40 | 7:00.37 | 89515 | 121051
4 | 26:54.02 | 7:51.38 | 121052 | 156414
5 | 34:45.40 | 8:30.60 | 156415 | 194724
6 | 43:16.25 | 9:35.55 | 194725 | 237904
7 | 52:52.05 | 0:21.00 | 237905 | 239479
8 | 53:13.05 | 8:20.02 | 239480 | 276981
Track 1
Filename D:\_Music myRips\Kahil El'Zabar - Love Outside of Dreams\wav\01 - Love Outside of Dreams.wav
Pre-gap length 0:00:02.00
Peak level 98.1 %
Track quality 100.0 %
Test CRC 3034A90E
Copy CRC 3034A90E
Track not present in AccurateRip database
Copy OK
Track 2
Filename D:\_Music myRips\Kahil El'Zabar - Love Outside of Dreams\wav\02 - Song For A New South Africa.wav
Peak level 98.0 %
Track quality 100.0 %
Test CRC 215DD0B6
Copy CRC 215DD0B6
Track not present in AccurateRip database
Copy OK
Track 3
Filename D:\_Music myRips\Kahil El'Zabar - Love Outside of Dreams\wav\03 - Song of Myself.wav
Peak level 69.7 %
Track quality 100.0 %
Test CRC DEF205B8
Copy CRC DEF205B8
Track not present in AccurateRip database
Copy OK
Track 4
Filename D:\_Music myRips\Kahil El'Zabar - Love Outside of Dreams\wav\04 - Nia.wav
Peak level 98.1 %
Track quality 99.9 %
Test CRC A1B4903E
Copy CRC A1B4903E
Track not present in AccurateRip database
Copy OK
Track 5
Filename D:\_Music myRips\Kahil El'Zabar - Love Outside of Dreams\wav\05 - Meditation For the Celestial Warriors.wav
Peak level 93.0 %
Track quality 100.0 %
Test CRC 43B59512
Copy CRC 43B59512
Track not present in AccurateRip database
Copy OK
Track 6
Filename D:\_Music myRips\Kahil El'Zabar - Love Outside of Dreams\wav\06 - The Ebullient Duke.wav
Peak level 98.1 %
Track quality 100.0 %
Test CRC 46BB67B3
Copy CRC 46BB67B3
Track not present in AccurateRip database
Copy OK
Track 7
Filename D:\_Music myRips\Kahil El'Zabar - Love Outside of Dreams\wav\07 - Fred.wav
Peak level 64.5 %
Track quality 100.0 %
Test CRC A4D9B004
Copy CRC A4D9B004
Track not present in AccurateRip database
Copy OK
Track 8
Filename D:\_Music myRips\Kahil El'Zabar - Love Outside of Dreams\wav\08 - One World Family.wav
Peak level 98.1 %
Track quality 100.0 %
Test CRC 8C3B5565
Copy CRC 8C3B5565
Track not present in AccurateRip database
Copy OK
None of the tracks are present in the AccurateRip database
No errors occurred
End of status report
 
Содержание индексной карты (.CUE)
REM GENRE jazz
REM DATE 2002
REM DISCID 780E6D08
REM COMMENT "ExactAudioCopy v0.99pb5"
PERFORMER "Kahil El'Zabar Trio"
TITLE "Love Outside of Dreams"
FILE "01 - Love Outside of Dreams.wav" WAVE
TRACK 01 AUDIO
TITLE "Love Outside of Dreams"
PERFORMER "Kahil El'Zabar Trio"
INDEX 01 00:00:00
FILE "02 - Song For A New South Africa.wav" WAVE
TRACK 02 AUDIO
TITLE "Song For A New South Africa"
PERFORMER "Kahil El'Zabar Trio"
INDEX 01 00:00:00
FILE "03 - Song of Myself.wav" WAVE
TRACK 03 AUDIO
TITLE "Song of Myself"
PERFORMER "Kahil El'Zabar Trio"
INDEX 01 00:00:00
FILE "04 - Nia.wav" WAVE
TRACK 04 AUDIO
TITLE "Nia"
PERFORMER "Kahil El'Zabar Trio"
INDEX 01 00:00:00
FILE "05 - Meditation For the Celestial Warriors.wav" WAVE
TRACK 05 AUDIO
TITLE "Meditation For the Celestial Warriors"
PERFORMER "Kahil El'Zabar Trio"
INDEX 01 00:00:00
FILE "06 - The Ebullient Duke.wav" WAVE
TRACK 06 AUDIO
TITLE "The Ebullient Duke"
PERFORMER "Kahil El'Zabar Trio"
INDEX 01 00:00:00
FILE "07 - Fred.wav" WAVE
TRACK 07 AUDIO
TITLE "Fred"
PERFORMER "Kahil El'Zabar Trio"
INDEX 01 00:00:00
FILE "08 - One World Family.wav" WAVE
TRACK 08 AUDIO
TITLE "One World Family"
PERFORMER "Kahil El'Zabar Trio"
INDEX 01 00:00:00
 
Review
While the music on this disc stands as yet another fine addition to Kahil El'Zabar's catalogue of collaborative jazz science, it should be noted first that this trio date is the final recording session of the late bassist Fred Hopkins, who died of heart disease six months after they were completed. Upon first listen, the striking and remarkable thing about Love Outside of Dreams sounds like a trio that had been playing together for no less than five or ten years. It's not just the intuition or the way in which Murray's and El'Zabar's tunes are executed, but the sheer and very muscular musicality the band plays with. This is music with a lot of improvisational fire at its center, yet, because of the strength and communication between the players, the nature of the music, it's affirmative and empathetic need to reach out of itself, is articulated with great verve by the trio. The opener and title track features Murray moving through the melodic statement and theme unencumbered by the rhythm section's simultaneous insistence to swing. He makes it knotty and complex, and then allows himself to open to their groove -- which is considerable. On Murray's "Song for a New South Africa," El'Zabar adopts hand percussion to open, and Murray borrows a line from Dudu Pakwana to create an evolving thematic scheme. It begins and moves toward another melody before returning and then incorporates that line into a funky kind of break that El'Zabar tempers before Hopkins comes in to mediate with a loping pizzicato, played sparely and in the pocket. "Meditation for the Celestial Warriors" is dedicated to Hopkins and his former bandmate, the late Steve McCall. Murray's beautiful, warm tone, always rough on the edges, wafts like a wisp of smoke over the African thumb piano, blowing low and mournful. Spirits and ghosts are in the center between them as they intone, a sad prayer that simultaneously pays tribute and remembers. The minor-key swing of Murray's "The Ebullient Duke" is a marked difference in the proceedings, but it is also the place where Hopkins shines brightest, curling around the drum kit and popping deep blues riffs in the accents, which Murray clearly feeds off of when he begins to quote loosely from Ellington. Hopkins ups the ante three different times in the improvisation, turning the original tune inside out before turning it on itself one more time top bring it back. He swings so hard that no matter what's going on, he cannot be diverted from his purpose. It's a beautiful cut and a fitting send off for Hopkins, one of the most durable and enduring bassists of the free jazz era.
 
Инфо
Каиль Эль-Забар (Kahil El'Zabar Trio) - американский мультиинструменталист (преимущественно перкуссионист) и композитор. Эль-Забар по праву считается одним из наиболее многообещающих джазменов своего поколения; его стиль являет собой оригинальную интерпретацию классических древнеафриканских мотивов в призме современного мира. По его собственным словам, дух некоей задумки всегда главнее её технического исполнения; самые высокие технологии мира бессильны, если самое сердце не в состоянии породить достойной мелодии. Основой же личностного роста любого артиста, по мнению Каиля, является его этническое происхождение.
Эль-Забар умеет играть на целом ряде инструментов; начинается этот немалый перечень относительно распространенными наименованиями – конга, бонго, африканские барабаны и гонги – до довольно экзотических – балафоны, маримба, санза, калимба и беримбау. В жанрах Каиль практически не знает границ; он успел поиграть с целым рядом великих джазменов, вроде Диззи Гиллеспи и Кэннонболла Аддерли, поработать с группой Стиви Уандера и Нины Саймон (для неё он также одно время разрабатывал костюмы), поучаствовать в деятельности Пола Саймона, записаться с рок-группами вроде 'Sonia Dada' и 'Poi Dog Ponerding' и возглавить джаз-хаусовую команду 'JUBA Collective'.
Появился на свет Эль-Забар в Чикаго; в те дни музыка играла буквально на всех улицах. Юный Каиль познакомился с ду-вопом, R&B, госпелом, блюзом и джазом. Окончив католическую школу, Эль-Забар отправился в колледж Кеннеди-Кинг; позже он перевелся в колледж Мальколм-Икс, а затем – в Лейк-Форест. В 1973-м Каилю выпала возможность овладеть ремеслом мима под руководством самого Марселя Марсо; впрочем, вместо этого Эль-Забар препочел поступить в университет Ганы и как следует изучить африканскую музыку.
В восемнадцать лет Эль-Забар вступил в ряды Чикагской Ассоциации по Продвижению Креативных Музыкантов (ААСМ); к 1975-ом он уже был председателем всего движения. В начале семидесятых музыкант создал собственную группу, 'Ethnic Heritage Ensemble'; чуть позже под его же руководством начала действовать команда 'Ritual Trio'. В обеих группах Каиль работает и по сей день.
Довелось Эль-Забару поработать и для киноэкрана; он принял участие в создании сразу трех художественных фильмов – 'Love Jones', 'Mo' Money' и 'How U Like Me Now'; кроме того, Каиль снялся в одной из главных ролей в художественной картине 'Саванна' ('Savannah') и сыграл главные роли в независимых проектах 'So Low But Not Alone' и 'The Last Set'. Именно Эль-Забара выбрали для руководства сценической постановкой 'Король-Лев' ('The Lion King'); кроме того Каиль выпустил книгу стихов и с некоторых пор профессионально занимается портняжным делом. С 1996-го по 1999-ый Эль-Забар руководил программой 'Траффик' в Steppenwolf Theatre в Чикаго. В 1991-ом музыканта отправили на немецкий джаз-фестиваль Leverkusen Jazz Festival, где он представил вниманию слушателей двадцатилетнюю ретроспективу своего творчества; вместе с ним выступал оркестр 'Infinity'.
Некоторое время Эль-Забар занимался преподавательской деятельностью – он был помощником профессора в Университете Небраски в Линкольне и Университете Иллинойса в Чикаго.
Каиль Эль-Забар по-прежнему проживает в Чикаго, воспитывает шестерых детей; за свою общественную деятельность (а он является председателем Афро-Американского Общества ударников, Чикагского Музея Блюза, Форума по развитию прогрессивного искусства, нескольких фондов) Эль-Забар в 2004 был назван "Чикагцем Года". (Иван Матковский)Kahil El'Zabar на трекере
Ethnic Heritage Ensemble
Официальный сайт
 
скрин
Any questions -> support@pro-jazz.com. По всем вопросам пишите -> support@pro-jazz.com
10:40
168
Нет комментариев. Ваш будет первым!