Вы используете незарегистрированную версию компонента "Вкладки"!

Поиск

(Free Jazz) Joe Rosenberg Quartet (Jean-Luc Guionnet, Mark Helias, Edward Perraud) - Do What We Must Do - 2002, FLAC (image+.cue), lossless

(Free Jazz) Joe Rosenberg Quartet (Jean-Luc Guionnet, Mark Helias, Edward Perraud) - Do What We Must Do - 2002, FLAC (image+.cue), lossless
Треклист:
Joe Rosenberg Quartet / Do What We Must Do
Жанр: Free Jazz
Страна-производитель диска: US
Год издания диска: 2002
Издатель (лейбл): CIMP
Номер по каталогу: 258
Аудиокодек: FLAC (*.flac)
Тип рипа: image+.cue
Битрейт аудио: lossless
Продолжительность: 73:22
Источник (релизер): cd
Наличие сканов в содержимом раздачи: нет
Треклист:
1 Jean-Truc - Take 1 6:20
2 Nouvelle Afrique 6:00
3 A La Carte 20:48
4 On Three 9:42
5 Calx 12:39
6 Version Two 10:02
7 Jean-Truc - Take 1 7:47
 
Лог создания рипа
Exact Audio Copy V1.0 beta 2 from 29. April 2011
EAC extraction logfile from 1. March 2012, 20:46
Joe Rosenberg Quartet / Do What We Must Do
Used drive : Optiarc DVD RW AD-7170A Adapter: 0 ID: 0
Read mode : Secure
Utilize accurate stream : Yes
Defeat audio cache : Yes
Make use of C2 pointers : No
Read offset correction : 48
Overread into Lead-In and Lead-Out : No
Fill up missing offset samples with silence : Yes
Delete leading and trailing silent blocks : No
Null samples used in CRC calculations : Yes
Used interface : Native Win32 interface for Win NT & 2000
Used output format : User Defined Encoder
Selected bitrate : 320 kBit/s
Quality : High
Add ID3 tag : No
Command line compressor : C:\Program Files\Exact Audio Copy\Flac\flac.exe
Additional command line options : -V -8 -T "Date=%year%" -T "Genre=%genre%" %source%
TOC of the extracted CD
Track | Start | Length | Start sector | End sector
---------------------------------------------------------
1 | 0:00.00 | 6:20.10 | 0 | 28509
2 | 6:20.10 | 6:00.55 | 28510 | 55564
3 | 12:20.65 | 20:48.69 | 55565 | 149233
4 | 33:09.59 | 9:42.54 | 149234 | 192937
5 | 42:52.38 | 12:39.22 | 192938 | 249884
6 | 55:31.60 | 10:02.51 | 249885 | 295085
7 | 65:34.36 | 7:47.62 | 295086 | 330172
Range status and errors
Selected range
Filename C:\EAC\Downloads\Joe Rosenberg Quartet - Do What We Must Do.wav
Peak level 100.0 %
Extraction speed 2.3 X
Range quality 99.9 %
Test CRC 7B39F7C0
Copy CRC 7B39F7C0
Copy OK
No errors occurred
AccurateRip summary
Track 1 not present in database
Track 2 not present in database
Track 3 not present in database
Track 4 not present in database
Track 5 not present in database
Track 6 not present in database
Track 7 not present in database
None of the tracks are present in the AccurateRip database
End of status report
==== Log checksum 1F1057821264065A23F147EF689B41E11AB9A380F1A849C0B63C7E7B0620FB71 ====
 
Содержание индексной карты (.CUE)
REM GENRE Jazz
REM DATE 2002
REM DISCID 63113207
REM COMMENT "ExactAudioCopy v1.0b2"
PERFORMER "Joe Rosenberg Quartet"
TITLE "Do What We Must Do"
FILE "Joe Rosenberg Quartet - Do What We Must Do.flac" WAVE
TRACK 01 AUDIO
TITLE "Jean-Truc - take 1"
PERFORMER "Joe Rosenberg Quartet"
INDEX 01 00:00:00
TRACK 02 AUDIO
TITLE "Nouvelle Afrique"
PERFORMER "Joe Rosenberg Quartet"
INDEX 00 06:17:28
INDEX 01 06:20:10
TRACK 03 AUDIO
TITLE "A La Carte"
PERFORMER "Joe Rosenberg Quartet"
INDEX 00 12:18:08
INDEX 01 12:20:65
TRACK 04 AUDIO
TITLE "On Three"
PERFORMER "Joe Rosenberg Quartet"
INDEX 00 33:07:02
INDEX 01 33:09:59
TRACK 05 AUDIO
TITLE "Calx"
PERFORMER "Joe Rosenberg Quartet"
INDEX 00 42:49:56
INDEX 01 42:52:38
TRACK 06 AUDIO
TITLE "Version Two"
PERFORMER "Joe Rosenberg Quartet"
INDEX 00 55:29:03
INDEX 01 55:31:60
TRACK 07 AUDIO
TITLE "Jean-Truc - take 2"
PERFORMER "Joe Rosenberg Quartet"
INDEX 00 65:31:54
INDEX 01 65:34:36
Доп. информация: Recorded at The Spirit Room, Rossie, NY, October 15, 2001.
 
Состав
Soprano Saxophone – Joe Rosenberg
Alto Saxophone – Jean-Luc Guionnet
Bass – Mark Helias
Drums – Edward Perraud
Any questions -> support@pro-jazz.com. По всем вопросам пишите -> support@pro-jazz.com
22:28
193
Нет комментариев. Ваш будет первым!