Вы используете незарегистрированную версию компонента "Вкладки"!

Поиск

(Abstract, Experimental, Free Improvisation) Mazzoll, Robert Knuth & Arhythmic Memory - Cynober Manifest - 1997, FLAC (tracks+.cue), lossless

(Abstract, Experimental, Free Improvisation) Mazzoll, Robert Knuth & Arhythmic Memory - Cynober Manifest - 1997, FLAC (tracks+.cue), lossless
Треклист:
Mazzoll, Robert Knuth & Arhythmic MemoryCynober Manifest
Жанр: Abstract, Experimental, Free Improvisation
Страна-производитель диска: Poland
Год издания диска: 1997
Издатель (лейбл): Jazz S.C.
Номер по каталогу: JA.S.C.E. 021
Аудиокодек: FLAC (*.flac)
Тип рипа: tracks+.cue
Битрейт аудио: lossless
Продолжительность: 72:54
Источник (релизер): what.cd (Jezulkim)
Наличие сканов в содержимом раздачи: да
Треклист:
01 C. M. (Wietrzni Kochankowie)
02 ....A Wieczorem Po Cichu Nowy Taniec....
03 Moment LOM
04 Arhytmic Memory
05 Diffusion Ambient Pictures Fatamorgana
06 Woda Źródłem Życia
07 Przeciw Przemocy Cz. I
08 Gegen Gewalt Vol. II
09 Against Violence Part III
10 Endless Love
11 Midnight Shakespeare
12 Aminio O'Tuoala
 
Лог создания рипа
Exact Audio Copy V1.0 beta 3 from 29. August 2011
EAC extraction logfile from 13. October 2011, 16:24
Mazzoll, Knuth* & Arhythmic Memory / Cynober Manifest
Used drive : SONY DVD RW DRU-810A Adapter: 4 ID: 0
Read mode : Secure
Utilize accurate stream : Yes
Defeat audio cache : Yes
Make use of C2 pointers : No
Read offset correction : 618
Overread into Lead-In and Lead-Out : No
Fill up missing offset samples with silence : Yes
Delete leading and trailing silent blocks : No
Null samples used in CRC calculations : Yes
Used interface : Installed external ASPI interface
Gap handling : Appended to previous track
Used output format : User Defined Encoder
Selected bitrate : 128 kBit/s
Quality : High
Add ID3 tag : No
Command line compressor : C:\Program Files\FLAC\flac.exe
Additional command line options : -V -8 -T "artist=%artist%" -T "title=%title%" -T "album=%albumtitle%" -T "date=%year%" -T "tracknumber=%tracknr%" -T "genre=%genre%" %source%
TOC of the extracted CD
Track | Start | Length | Start sector | End sector
---------------------------------------------------------
1 | 0:00.00 | 9:55.30 | 0 | 44654
2 | 9:55.30 | 5:29.05 | 44655 | 69334
3 | 15:24.35 | 0:19.27 | 69335 | 70786
4 | 15:43.62 | 3:18.38 | 70787 | 85674
5 | 19:02.25 | 4:55.02 | 85675 | 107801
6 | 23:57.27 | 12:11.05 | 107802 | 162631
7 | 36:08.32 | 0:50.13 | 162632 | 166394
8 | 36:58.45 | 1:23.20 | 166395 | 172639
9 | 38:21.65 | 0:54.35 | 172640 | 176724
10 | 39:16.25 | 14:19.00 | 176725 | 241149
11 | 53:35.25 | 3:03.00 | 241150 | 254874
12 | 56:38.25 | 16:16.05 | 254875 | 328079
Track 1
Filename D:\temp\Mazzoll, Knuthx & Arhythmic Memory - Cynober Manifest\01 - Track01.wav
Pre-gap length 0:00:02.00
Peak level 98.8 %
Extraction speed 5.4 X
Track quality 100.0 %
Test CRC 99A67DD1
Copy CRC 99A67DD1
Accurately ripped (confidence 1) [316BE282] (AR v1)
Copy OK
Track 2
Filename D:\temp\Mazzoll, Knuthx & Arhythmic Memory - Cynober Manifest\02 - Track02.wav
Pre-gap length 0:00:00.84
Peak level 78.3 %
Extraction speed 5.7 X
Track quality 100.0 %
Test CRC 15F3FBC7
Copy CRC 15F3FBC7
Accurately ripped (confidence 1) [E2F6477F] (AR v1)
Copy OK
Track 3
Filename D:\temp\Mazzoll, Knuthx & Arhythmic Memory - Cynober Manifest\03 - Track03.wav
Peak level 0.4 %
Extraction speed 2.1 X
Track quality 100.0 %
Test CRC E34E9B1E
Copy CRC E34E9B1E
Accurately ripped (confidence 1) [2709CCB9] (AR v1)
Copy OK
Track 4
Filename D:\temp\Mazzoll, Knuthx & Arhythmic Memory - Cynober Manifest\04 - Track04.wav
Pre-gap length 0:00:01.60
Peak level 89.1 %
Extraction speed 4.8 X
Track quality 99.9 %
Test CRC 5B0EA3DB
Copy CRC 5B0EA3DB
Accurately ripped (confidence 1) [B8674878] (AR v1)
Copy OK
Track 5
Filename D:\temp\Mazzoll, Knuthx & Arhythmic Memory - Cynober Manifest\05 - Track05.wav
Peak level 41.9 %
Extraction speed 5.9 X
Track quality 100.0 %
Test CRC 2B673C94
Copy CRC 2B673C94
Accurately ripped (confidence 1) [23AE539A] (AR v1)
Copy OK
Track 6
Filename D:\temp\Mazzoll, Knuthx & Arhythmic Memory - Cynober Manifest\06 - Track06.wav
Peak level 98.8 %
Extraction speed 6.5 X
Track quality 99.9 %
Test CRC 9BBE5400
Copy CRC 9BBE5400
Accurately ripped (confidence 1) [45BCD285] (AR v1)
Copy OK
Track 7
Filename D:\temp\Mazzoll, Knuthx & Arhythmic Memory - Cynober Manifest\07 - Track07.wav
Pre-gap length 0:00:01.86
Peak level 86.6 %
Extraction speed 4.0 X
Track quality 100.0 %
Test CRC 9E34DEE4
Copy CRC 9E34DEE4
Accurately ripped (confidence 1) [B24DD183] (AR v1)
Copy OK
Track 8
Filename D:\temp\Mazzoll, Knuthx & Arhythmic Memory - Cynober Manifest\08 - Track08.wav
Pre-gap length 0:00:00.24
Peak level 69.3 %
Extraction speed 5.1 X
Track quality 100.0 %
Test CRC F8DB4B9A
Copy CRC F8DB4B9A
Accurately ripped (confidence 1) [BCCBCE14] (AR v1)
Copy OK
Track 9
Filename D:\temp\Mazzoll, Knuthx & Arhythmic Memory - Cynober Manifest\09 - Track09.wav
Pre-gap length 0:00:01.70
Peak level 69.9 %
Extraction speed 4.0 X
Track quality 100.0 %
Test CRC D74E664B
Copy CRC D74E664B
Accurately ripped (confidence 1) [1F5F1821] (AR v1)
Copy OK
Track 10
Filename D:\temp\Mazzoll, Knuthx & Arhythmic Memory - Cynober Manifest\10 - Track10.wav
Pre-gap length 0:00:01.46
Peak level 98.8 %
Extraction speed 7.0 X
Track quality 100.0 %
Test CRC 9E2C8742
Copy CRC 9E2C8742
Accurately ripped (confidence 1) [CCD05B5E] (AR v1)
Copy OK
Track 11
Filename D:\temp\Mazzoll, Knuthx & Arhythmic Memory - Cynober Manifest\11 - Track11.wav
Pre-gap length 0:00:02.97
Peak level 86.0 %
Extraction speed 5.9 X
Track quality 100.0 %
Test CRC 2A936639
Copy CRC 2A936639
Accurately ripped (confidence 1) [FF15885D] (AR v1)
Copy OK
Track 12
Filename D:\temp\Mazzoll, Knuthx & Arhythmic Memory - Cynober Manifest\12 - Track12.wav
Pre-gap length 0:00:00.26
Peak level 99.7 %
Extraction speed 7.2 X
Track quality 100.0 %
Test CRC A324C43A
Copy CRC A324C43A
Accurately ripped (confidence 1) [5E08257B] (AR v1)
Copy OK
All tracks accurately ripped
No errors occurred
End of status report
---- CUETools DB Plugin V2.1.3
[CTDB TOCID: gpn.hl160MoXDVfIHvYLXYYqAU4-] disk not present in database, Submit result: gpn.hl160MoXDVfIHvYLXYYqAU4- has been uploaded
==== Log checksum AD0A6249EAA25149C79CDDBE09CB504F3CACA91BDCEA0EBD0EB0ED6AD053B681 ====
 
Содержание индексной карты (.CUE)
REM GENRE Jazz
REM DATE 1997
REM DISCID 9311160C
REM COMMENT "ExactAudioCopy v1.0b3"
FILE "01 - C. M. (Wietrzni Kochankowie).wav" WAVE
TRACK 01 AUDIO
INDEX 01 00:00:00
TRACK 02 AUDIO
FLAGS DCP
INDEX 00 09:54:42
FILE "02 - ....A Wieczorem Po Cichu Nowy Taniec.....wav" WAVE
INDEX 01 00:00:00
FILE "03 - Moment LOM.wav" WAVE
TRACK 03 AUDIO
FLAGS DCP
INDEX 01 00:00:00
TRACK 04 AUDIO
FLAGS DCP
INDEX 00 00:17:57
FILE "04 - Arhytmic Memory.wav" WAVE
INDEX 01 00:00:00
FILE "05 - Diffusion Ambient Pictures Fatamorgana.wav" WAVE
TRACK 05 AUDIO
FLAGS DCP
INDEX 01 00:00:00
FILE "06 - Woda Źródłem Życia.wav" WAVE
TRACK 06 AUDIO
FLAGS DCP
INDEX 01 00:00:00
TRACK 07 AUDIO
FLAGS DCP
INDEX 00 12:09:15
FILE "07 - Przeciw Przemocy Cz. I.wav" WAVE
INDEX 01 00:00:00
TRACK 08 AUDIO
FLAGS DCP
INDEX 00 00:49:70
FILE "08 - Gegen Gewalt Vol. II.wav" WAVE
INDEX 01 00:00:00
TRACK 09 AUDIO
FLAGS DCP
INDEX 00 01:21:42
FILE "09 - Against Violence Part III.wav" WAVE
INDEX 01 00:00:00
TRACK 10 AUDIO
FLAGS DCP
INDEX 00 00:53:00
FILE "10 - Endless Love.wav" WAVE
INDEX 01 00:00:00
TRACK 11 AUDIO
FLAGS DCP
INDEX 00 14:16:02
FILE "11 - Midnight Shakespeare.wav" WAVE
INDEX 01 00:00:00
TRACK 12 AUDIO
FLAGS DCP
INDEX 00 03:02:55
FILE "12 - Aminio O'Tuoala.wav" WAVE
INDEX 01 00:00:00
Доп. информация: Recorded and Mastered at studio of Polish Radio.
 
Состав
Bass – Wojciech II Mazzoll
Clarinet, Bass Clarinet, Vocals, Conductor – Mazzoll
Electronics, Recorded By, Mastered By – Jacek Puchalski
Guitar – Piotr Pawlak
Guitar, Vocals – Maciej Cieślak
Keyboards – Mikołaj Szajna
Performer [Train Dat & Cd] – D.J. PBM
Producer [Executive] – Jarosław Pataluch, Zan Kwiatkowski
Synthesizer, Guitar, Sampler – Adam Kamiński
Vocals – Anna Siwiec, Elżbieta Maciarewicz
Voice – Iliao O' Tuoala, Weanij O' Tuoala
Voice, Performer [Rainchord] – Robert Knuth
Voice, Whistle, Reeds – Alfred Harth
Any questions -> support@pro-jazz.com. По всем вопросам пишите -> support@pro-jazz.com
22:27
214
Нет комментариев. Ваш будет первым!