Вы используете незарегистрированную версию компонента "Вкладки"!

Поиск

(free jazz) Joe McPhee Quartet - Legend Street One &Two 1996, FLAC (tracks+.cue), lossless

(free jazz) Joe McPhee Quartet - Legend Street One &Two 1996, FLAC (tracks+.cue), lossless
Треклист:



Joe McPhee Quartet - Legend Street One &Two 1996

Жанр: free jazz
Год выпуска: 1996
Издатель (лейбл): CIMP
Формат: FLAC (tracks+.cue)
Битрейт аудио: lossless
Продолжительность: 1`56`01
Источник: what.cd
Drums - Charles Moffett
Saxophone [Tenor] - Frank Lowe
Trumpet [Pocket], Saxophone [Alto, Tenor], Flugelhorn - Joe McPhee
Violin - David Prentice (2)
Recorded at The Spirit Room, Rossie, NY, June 1 & 2, 1996.

one

1 Loweville 2:12
Composed By, Arranged By - Frank Lowe , Joe McPhee
2 What We Do 7:12
3 Memorium 5:33
4 For Panama, Parts 1&2 7:42
Composed By, Arranged By - Charles Moffett
5 Up, Over And Out 9:16
6 July The 13th 5:22
7 Not Yet 6:05
8 Trading Space 9:40

 
.cue
REM DISCID 5B0C6E08
REM COMMENT "ExactAudioCopy v0.95b3"
PERFORMER "Joe McPhee Quartet"
TITLE "Legend Street One"
REM DATE 1996
FILE "01. Loweville.flac" WAVE
INDEX 01 00:00:00
TRACK 02 AUDIO
TITLE "What We Do"
PERFORMER "Joe McPhee Quartet"
FLAGS DCP
INDEX 00 02:09:31
FILE "02. What We Do.flac" WAVE
INDEX 01 00:00:00
TRACK 03 AUDIO
TITLE "Memorium"
PERFORMER "Joe McPhee Quartet"
FLAGS DCP
INDEX 00 07:09:12
FILE "03. Memorium.flac" WAVE
INDEX 01 00:00:00
TRACK 04 AUDIO
TITLE "For Panama, Parts 1&2"
PERFORMER "Joe McPhee Quartet"
FLAGS DCP
INDEX 00 05:30:63
FILE "04. For Panama, Parts 1&2.flac" WAVE
INDEX 01 00:00:00
TRACK 05 AUDIO
TITLE "Up, Over, and Out"
PERFORMER "Joe McPhee Quartet"
FLAGS DCP
INDEX 00 07:40:05
FILE "05. Up, Over, and Out.flac" WAVE
INDEX 01 00:00:00
TRACK 06 AUDIO
TITLE "July the 13th"
PERFORMER "Joe McPhee Quartet"
FLAGS DCP
INDEX 00 09:13:12
FILE "06. July the 13th.flac" WAVE
INDEX 01 00:00:00
TRACK 07 AUDIO
TITLE "Not Yet"
PERFORMER "Joe McPhee Quartet"
FLAGS DCP
INDEX 00 05:19:02
FILE "07. Not Yet.flac" WAVE
INDEX 01 00:00:00
TRACK 08 AUDIO
TITLE "Trading Space"
PERFORMER "Joe McPhee Quartet"
FLAGS DCP
INDEX 00 06:02:13
FILE "08. Trading Space.flac" WAVE
INDEX 01 00:00:00
 
auCDtect
auCDtect: CD records authenticity detector, version 0.8.2
Copyright (c) 2004 Oleg Berngardt. All rights reserved.
Copyright (c) 2004 Alexander Djourik. All rights reserved.
------------------------------------------------------------
Processing file: [01. Loweville.wav]
------------------------------------------------------------
This track looks like CDDA with probability 100%
------------------------------------------------------------
Processing file: [02. What We Do.wav]
------------------------------------------------------------
This track looks like CDDA with probability 99%
------------------------------------------------------------
Processing file: [03. Memorium.wav]
------------------------------------------------------------
This track looks like CDDA with probability 100%
------------------------------------------------------------
Processing file: [04. For Panama, Parts 1&2.wav]
------------------------------------------------------------
This track looks like CDDA with probability 100%
------------------------------------------------------------
Processing file: [05. Up, Over, and Out.wav]
------------------------------------------------------------
This track looks like CDDA with probability 100%
------------------------------------------------------------
Processing file: [06. July the 13th.wav]
------------------------------------------------------------
This track looks like CDDA with probability 100%
------------------------------------------------------------
Processing file: [07. Not Yet.wav]
------------------------------------------------------------
This track looks like CDDA with probability 100%
------------------------------------------------------------
Processing file: [08. Trading Space.wav]
------------------------------------------------------------
This track looks like CDDA with probability 100%
------------------------------------------------------------
Final Conclusion:
------------------------------------------------------------
These tracks looks like CDDA with probability 100%
 
accurip
[CUETools log; Date: 5/12/2011 17:11:34 PM; Version: 2.1.2a]
Using preserved id, actual id is 000ec143-0065d246-6e0c6e08.
[CTDB TOCID: NFLpmtdhTLTvGT9SoOlQes0EHKY-] disk not present in database.
[AccurateRip ID: 000ec3e6-0065df74-5b0c6e08] found.
Track [ CRC ] Status
01 [b3ec6711] (0/1) No match
02 [1ce78e96] (0/1) No match
03 [5e819e15] (0/1) No match
04 [53cb286c] (0/1) No match
05 [0bfbdbe8] (0/1) No match
06 [3abd49d0] (0/1) No match
07 [6e9f8d0f] (0/1) No match
08 [163cb31c] (0/1) No match
Offsetted by 552:
01 [343df799] (1/1) Accurately ripped
02 [cc5be7ee] (1/1) Accurately ripped
03 [750685ad] (1/1) Accurately ripped
04 [3737675c] (1/1) Accurately ripped
05 [07fb3ff0] (1/1) Accurately ripped
06 [ba26cea0] (1/1) Accurately ripped
07 [0bf2d777] (1/1) Accurately ripped
08 [815c9dbc] (1/1) Accurately ripped
Track Peak [ CRC32 ] [W/O NULL]
-- 100.0 [8536BF39] [01BA2165]
01 48.0 [652647D4] [6F36CF0D]
02 71.0 [9198BE0C] [E49F924C]
03 20.8 [8F96177A] [1B7AB3B9]
04 100.0 [12F3102A] [67B4CA17]
05 99.9 [A1CFE574] [F2DC7734]
06 45.9 [696C32ED] [996E3A45]
07 50.6 [B0B2CFF2] [F52C4820]
08 39.1 [99C66CED] [56848B1F]


two

1 Something Sweet, Something Tender 14:58
Composed By - Eric Dolphy
2 Consider The Alternative 9:00
3 Double Ten 11:04
4 E.P. 1:55
5 Dark Doings 14:58
6 There Was A Flower Near Napoli 5:08
Composed By - Charles Tyler
7 Not Absolute 5:58

 
.cue
REM DISCID 470EC207
REM COMMENT "ExactAudioCopy v0.95b3"
PERFORMER "Joe McPhee Quartet"
TITLE "Legend Street Two"
REM DATE 1996
FILE "01. Something Sweet, Something Tender.flac" WAVE
INDEX 01 00:00:00
TRACK 02 AUDIO
TITLE "Considerthe Alternative"
PERFORMER "Joe McPhee Quartet"
FLAGS DCP
INDEX 00 14:54:62
FILE "02. Considerthe Alternative.flac" WAVE
INDEX 01 00:00:00
TRACK 03 AUDIO
TITLE "Double Ten"
PERFORMER "Joe McPhee Quartet"
FLAGS DCP
INDEX 00 08:56:15
FILE "03. Double Ten.flac" WAVE
INDEX 01 00:00:00
TRACK 04 AUDIO
TITLE "E.P."
PERFORMER "Joe McPhee Quartet"
FLAGS DCP
INDEX 00 11:01:29
FILE "04. E.P..flac" WAVE
INDEX 01 00:00:00
TRACK 05 AUDIO
TITLE "Dark Doings"
PERFORMER "Joe McPhee Quartet"
FLAGS DCP
INDEX 00 01:52:02
FILE "05. Dark Doings.flac" WAVE
INDEX 01 00:00:00
TRACK 06 AUDIO
TITLE "There Was a Flower Near Napoli"
PERFORMER "Joe McPhee Quartet"
FLAGS DCP
INDEX 00 14:54:54
FILE "06. There Was a Flower Near Napoli.flac" WAVE
INDEX 01 00:00:00
TRACK 07 AUDIO
TITLE "Not Absolute"
PERFORMER "Joe McPhee Quartet"
FLAGS DCP
INDEX 00 05:04:59
FILE "07. Not Absolute.flac" WAVE
INDEX 01 00:00:00
 
auCDtect
auCDtect: CD records authenticity detector, version 0.8.2
Copyright (c) 2004 Oleg Berngardt. All rights reserved.
Copyright (c) 2004 Alexander Djourik. All rights reserved.
------------------------------------------------------------
Processing file: [01. Something Sweet, Something Tender.wav]
------------------------------------------------------------
This track looks like CDDA with probability 100%
------------------------------------------------------------
Processing file: [02. Considerthe Alternative.wav]
------------------------------------------------------------
This track looks like CDDA with probability 99%
------------------------------------------------------------
Processing file: [03. Double Ten.wav]
------------------------------------------------------------
This track looks like CDDA with probability 100%
------------------------------------------------------------
Processing file: [04. E.P..wav]
------------------------------------------------------------
This track looks like CDDA with probability 100%
------------------------------------------------------------
Processing file: [05. Dark Doings.wav]
------------------------------------------------------------
This track looks like CDDA with probability 99%
------------------------------------------------------------
Processing file: [06. There Was a Flower Near Napoli.wav]
------------------------------------------------------------
This track looks like CDDA with probability 100%
------------------------------------------------------------
Processing file: [07. Not Absolute.wav]
------------------------------------------------------------
This track looks like CDDA with probability 100%
------------------------------------------------------------
Final Conclusion:
------------------------------------------------------------
These tracks looks like CDDA with probability 100%
 
accurip
[CUETools log; Date: 10/12/2011 19:15:32 PM; Version: 2.1.2a]
Using preserved id, actual id is 00136997-0070a6e9-520ec207.
[CTDB TOCID: 9wQ0Z8I5bKzLRKXHTV5fiZFCUNc-] disk not present in database.
[AccurateRip ID: 00136bef-0070b174-470ec207] found.
Track [ CRC ] Status
01 [82675e3d] (0/2) No match
02 [e8996e82] (0/2) No match
03 [ed656843] (0/2) No match
04 [1a8a9bab] (0/2) No match
05 [576b2ede] (0/2) No match
06 [5a7ea77f] (0/2) No match
07 [a19931e5] (0/2) No match
Offsetted by 552:
01 [775f38cd] (2/2) Accurately ripped
02 [ce8498da] (2/2) Accurately ripped
03 [a287d8bb] (2/2) Accurately ripped
04 [b0a938fb] (2/2) Accurately ripped
05 [129d5fb6] (2/2) Accurately ripped
06 [5eea03cf] (2/2) Accurately ripped
07 [f8555160] (2/2) Accurately ripped
Track Peak [ CRC32 ] [W/O NULL]
-- 100.0 [A2584B6C] [DA642F4A]
01 42.7 [99F31A8B] [E194C8CD]
02 70.2 [F62055BD] [2DB1D3D8]
03 99.9 [9A3ADDFB] [34498DE8]
04 25.3 [804850AE] [A440F19F]
05 100.0 [5CF32C02] [31073466]
06 53.1 [D5CF22AB] [5DC877E3]
07 82.1 [1AE5D568] [4B347291]


другие релизы
Any questions -> support@pro-jazz.com. По всем вопросам пишите -> support@pro-jazz.com
19:27
165
Нет комментариев. Ваш будет первым!