Вы используете незарегистрированную версию компонента "Вкладки"!

Поиск

(Avant-Garde, Contemporary Jazz) Denis Colin & la Societe des Arpenteurs - Subject to Live - 2011, FLAC (tracks+.cue), lossless

Треклист:
Denis Colin & la Société des Arpenteurs - Subject to Live
Жанр: Avant-Garde, Contemporary Jazz
Страна-производитель диска: Austria
Год издания диска: 2011
Издатель (лейбл): Le Chant du Monde
Номер по каталогу: 274 2023
Страна: France, Vanves
Аудиокодек: FLAC (*.flac)
Тип рипа: tracks+.cue
Битрейт аудио: lossless
Продолжительность: 01:07:35
Источник (релизер): shummuhs
Наличие сканов в содержимом раздачи: да
01. Jungoso [08:03]
02. Danse de chevet [07:27]
03. Par cheminement [05:24]
04. Turkish women at the bath [04:39]
05. Waiting to the flight to Venus [03:50]
06. Ouverture definitive [08:30]
07. Chicago blues for Malachi [07:37]
08. Hommes sans titres [04:57]
09. Sonne, completement sonne [07:52]
10. Sujet a changement [09:12]
 
Лог создания рипа
Exact Audio Copy V1.0 beta 3 from 29. August 2011
EAC extraction logfile from 9. December 2011, 16:09
Denis Colin / Subject to live
Used drive : PLEXTOR DVDR PX-860A Adapter: 0 ID: 0
Read mode : Secure
Utilize accurate stream : Yes
Defeat audio cache : Yes
Make use of C2 pointers : No
Read offset correction : 96
Overread into Lead-In and Lead-Out : No
Fill up missing offset samples with silence : Yes
Delete leading and trailing silent blocks : No
Null samples used in CRC calculations : Yes
Used interface : Native Win32 interface for Win NT & 2000
Gap handling : Appended to previous track
Used output format : User Defined Encoder
Selected bitrate : 1024 kBit/s
Quality : High
Add ID3 tag : No
Command line compressor : C:\Program Files\Exact Audio Copy 3\Flac\flac.exe
Additional command line options : -8 -V -T "ARTIST=%artist%" -T "TITLE=%title%" -T "ALBUM=%albumtitle%" -T "DATE=%year%" -T "TRACKNUMBER=%tracknr%" -T "TOTALTRACKS=%numtracks%" -T "GENRE=%genre%" -T "ALBUM ARTIST=%albumartist%" -T "ALBUMARTIST=%albumartist%" -T "COMMENT=EAC V1.0 beta 3, Secure Mode, Test & Copy, AccurateRip, FLAC -8" %source%
TOC of the extracted CD
Track | Start | Length | Start sector | End sector
---------------------------------------------------------
1 | 0:00.00 | 8:03.19 | 0 | 36243
2 | 8:03.19 | 7:27.66 | 36244 | 69834
3 | 15:31.10 | 5:27.68 | 69835 | 94427
4 | 20:59.03 | 4:39.60 | 94428 | 115412
5 | 25:38.63 | 3:50.05 | 115413 | 132667
6 | 29:28.68 | 8:32.56 | 132668 | 171123
7 | 38:01.49 | 7:37.60 | 171124 | 205458
8 | 45:39.34 | 4:57.40 | 205459 | 227773
9 | 50:36.74 | 7:56.48 | 227774 | 263521
10 | 58:33.47 | 9:12.18 | 263522 | 304939
Track 1
Filename S:\DL\Denis Colin - Subject to live (2011) [FLAC]\01 - Jungoso.wav
Pre-gap length 0:00:02.00
Peak level 100.0 %
Extraction speed 5.3 X
Track quality 100.0 %
Test CRC B68F3F37
Copy CRC B68F3F37
Track not present in AccurateRip database
Copy OK
Track 2
Filename S:\DL\Denis Colin - Subject to live (2011) [FLAC]\02 - Danse de chevet.wav
Peak level 100.0 %
Extraction speed 5.7 X
Track quality 99.9 %
Test CRC 9CED2104
Copy CRC 9CED2104
Track not present in AccurateRip database
Copy OK
Track 3
Filename S:\DL\Denis Colin - Subject to live (2011) [FLAC]\03 - Par cheminement.wav
Peak level 100.0 %
Extraction speed 6.5 X
Track quality 100.0 %
Test CRC 02A046E4
Copy CRC 02A046E4
Track not present in AccurateRip database
Copy OK
Track 4
Filename S:\DL\Denis Colin - Subject to live (2011) [FLAC]\04 - Turkish women at the bath.wav
Pre-gap length 0:00:03.65
Peak level 100.0 %
Extraction speed 6.8 X
Track quality 100.0 %
Test CRC 52ABF0B2
Copy CRC 52ABF0B2
Track not present in AccurateRip database
Copy OK
Track 5
Filename S:\DL\Denis Colin - Subject to live (2011) [FLAC]\05 - Waiting to the flight to Venus.wav
Peak level 100.0 %
Extraction speed 6.1 X
Track quality 99.9 %
Test CRC 5F04B1DB
Copy CRC 5F04B1DB
Track not present in AccurateRip database
Copy OK
Track 6
Filename S:\DL\Denis Colin - Subject to live (2011) [FLAC]\06 - Ouverture definitive.wav
Peak level 100.0 %
Extraction speed 7.9 X
Track quality 100.0 %
Test CRC 0F717D8A
Copy CRC 0F717D8A
Track not present in AccurateRip database
Copy OK
Track 7
Filename S:\DL\Denis Colin - Subject to live (2011) [FLAC]\07 - Chicago blues for Malachi.wav
Pre-gap length 0:00:02.29
Peak level 100.0 %
Extraction speed 7.8 X
Track quality 99.9 %
Test CRC A2A34DBA
Copy CRC A2A34DBA
Track not present in AccurateRip database
Copy OK
Track 8
Filename S:\DL\Denis Colin - Subject to live (2011) [FLAC]\08 - Hommes sans titres.wav
Peak level 100.0 %
Extraction speed 8.4 X
Track quality 100.0 %
Test CRC DAC0DF7E
Copy CRC DAC0DF7E
Track not present in AccurateRip database
Copy OK
Track 9
Filename S:\DL\Denis Colin - Subject to live (2011) [FLAC]\09 - Sonne, completement sonne.wav
Peak level 100.0 %
Extraction speed 9.1 X
Track quality 100.0 %
Test CRC E64C6296
Copy CRC E64C6296
Track not present in AccurateRip database
Copy OK
Track 10
Filename S:\DL\Denis Colin - Subject to live (2011) [FLAC]\10 - Sujet a changement.wav
Pre-gap length 0:00:04.06
Peak level 100.0 %
Extraction speed 9.6 X
Track quality 100.0 %
Test CRC 2DAC8C1E
Copy CRC 2DAC8C1E
Track not present in AccurateRip database
Copy OK
None of the tracks are present in the AccurateRip database
No errors occurred
End of status report
---- CUETools DB Plugin V2.1.3
[CTDB TOCID: LdroJaLnOVtOj_YOFq9wvnDEGDw-] disk not present in database, Submit result: database access error: The request was aborted: The request was canceled.
==== Log checksum 037FFEE17DC24907E514BCC12291386A0671E175CB514173823991724150157A ====
 
Содержание индексной карты (.CUE)
REM GENRE Jazz
REM DATE 2011
REM DISCID 7E0FE10A
REM COMMENT "ExactAudioCopy v1.0b3"
PERFORMER "Denis Colin"
TITLE "Subject to live"
FILE "01 - Jungoso.wav" WAVE
TRACK 01 AUDIO
TITLE "Jungoso"
PERFORMER "Denis Colin"
INDEX 01 00:00:00
FILE "02 - Danse de chevet.wav" WAVE
TRACK 02 AUDIO
TITLE "Danse de chevet"
PERFORMER "Denis Colin"
INDEX 01 00:00:00
FILE "03 - Par cheminement.wav" WAVE
TRACK 03 AUDIO
TITLE "Par cheminement"
PERFORMER "Denis Colin"
INDEX 01 00:00:00
TRACK 04 AUDIO
TITLE "Turkish women at the bath"
PERFORMER "Denis Colin"
INDEX 00 05:24:03
FILE "04 - Turkish women at the bath.wav" WAVE
INDEX 01 00:00:00
FILE "05 - Waiting to the flight to Venus.wav" WAVE
TRACK 05 AUDIO
TITLE "Waiting to the flight to Venus"
PERFORMER "Denis Colin"
INDEX 01 00:00:00
FILE "06 - Ouverture definitive.wav" WAVE
TRACK 06 AUDIO
TITLE "Ouverture definitive"
PERFORMER "Denis Colin"
INDEX 01 00:00:00
TRACK 07 AUDIO
TITLE "Chicago blues for Malachi"
PERFORMER "Denis Colin"
INDEX 00 08:30:27
FILE "07 - Chicago blues for Malachi.wav" WAVE
INDEX 01 00:00:00
FILE "08 - Hommes sans titres.wav" WAVE
TRACK 08 AUDIO
TITLE "Hommes sans titres"
PERFORMER "Denis Colin"
INDEX 01 00:00:00
FILE "09 - Sonne, completement sonne.wav" WAVE
TRACK 09 AUDIO
TITLE "Sonne, completement sonne"
PERFORMER "Denis Colin"
INDEX 01 00:00:00
TRACK 10 AUDIO
TITLE "Sujet a changement"
PERFORMER "Denis Colin"
INDEX 00 07:52:42
FILE "10 - Sujet a changement.wav" WAVE
INDEX 01 00:00:00
 
Лог проверки качества
-----------------------
DON'T MODIFY THIS FILE
-----------------------
PERFORMER: auCDtect Task Manager, ver. 1.5.1RC6 build 1.5.1.7
Copyright (c) 2008-2010 y-soft. All rights reserved
http://y-soft.org
ANALYZER: auCDtect: CD records authenticity detector, version 0.8.2
Copyright (c) 2004 Oleg Berngardt. All rights reserved.
Copyright (c) 2004 Alexander Djourik. All rights reserved.
FILE: 10 - Sujet a changement.flac
Size: 53900386 Hash: 858AD981673B62BE5D0B6273E3B44DE7 Accuracy: -m0
Conclusion: CDDA 99%
Signature: 4EE205A9974B882743A12FF44F9B5248528833F1
FILE: 09 - Sonne, completement sonne.flac
Size: 49274054 Hash: 128CEDE8B9DDC394680CC8BA4498CF16 Accuracy: -m0
Conclusion: CDDA 100%
Signature: 01CC97C4DA7C2395250ACFF25DCCC10C4F46DF44
FILE: 08 - Hommes sans titres.flac
Size: 33033594 Hash: AA833BCF75211D34ACE346A96E70F1FD Accuracy: -m0
Conclusion: CDDA 100%
Signature: 5153F585742DEBC6CDFB16E87A6128DC9487866C
FILE: 07 - Chicago blues for Malachi.flac
Size: 43509331 Hash: B0A30D2D2C23BF0FABEF41BDEB1EF533 Accuracy: -m0
Conclusion: CDDA 100%
Signature: 464B2E218D14ED4910D5E0292EA2F83D99FFFB18
FILE: 06 - Ouverture definitive.flac
Size: 55132041 Hash: 60031906DC5D8B39FF79B2564BB46E79 Accuracy: -m0
Conclusion: CDDA 100%
Signature: 075471F9F6B0A2746DF4A7138D0015559B547654
FILE: 05 - Waiting to the flight to Venus.flac
Size: 15101741 Hash: AC73D89407D9D0360AA3E142C9078514 Accuracy: -m0
Conclusion: CDDA 100%
Signature: 3557A4751D155F3A7B42F4B78DD502480A9E221C
FILE: 04 - Turkish women at the bath.flac
Size: 26784055 Hash: 89AE39DABBB2026B736B6EB3903FBD85 Accuracy: -m0
Conclusion: CDDA 99%
Signature: AC791E63466151493ADD33B6E6891B23492ECF8D
FILE: 03 - Par cheminement.flac
Size: 35365147 Hash: 56CB000D05EC201195D894C390B4BE45 Accuracy: -m0
Conclusion: CDDA 100%
Signature: B8A13CE41B162CF0CC70D27350EA0F28ED77EB0D
FILE: 02 - Danse de chevet.flac
Size: 43003050 Hash: 5DF282B8D79674E6AB2683231F6DF3BA Accuracy: -m0
Conclusion: CDDA 100%
Signature: E25E8EAE7CF58F826998D6C02BCD22199088C02E
FILE: 01 - Jungoso.flac
Size: 50679875 Hash: 5AEBA979BCD1427770AA74876CB2C7E6 Accuracy: -m0
Conclusion: CDDA 100%
Signature: 7B0EC4010E7F19C3F1FA23A759CF8E8D16D7A049
 
Состав
Denis Colin (clarinette basse)
Philippe Sellam (saxophones alto et soprano)
Fabrice Theuillon (saxophones baryton et soprano)
Sylvaine Hélary (flûte, flûte en sol et piccolo)
Antoine Berjeaut (trompette et bugle)
Benjamin Moussay (claviers)
Julien Omé (guitare)
Stéphane Kerecki (contrebasse)
Thomas Grimmonprez (batterie) (sauf * Eric Echampard)
Any questions -> support@pro-jazz.com. По всем вопросам пишите -> support@pro-jazz.com
19:27
186
Нет комментариев. Ваш будет первым!