Вы используете незарегистрированную версию компонента "Вкладки"!

Поиск

(Free Jazz) Joe McPhee , Mikolaj Trzaska, Jay Rosen - Intimate Conversations - 2007, FLAC (tracks+.cue), lossless

Треклист:
Joe McPhee , Mikolaj Trzaska, Jay Rosen - Intimate Conversations
Жанр: Free Jazz
Год выпуска диска: 2007
Производитель диска: Not Two Records (MW 790-2)
Аудио кодек: FLAC
Источник: вот.сиди (aphex80)
Тип рипа: tracks+.cue
Битрейт аудио: lossless
Продолжительность: 1:12:09
Треклист:
1. WAS IT SOMETHING I SAID? [03:38]
2. MAYBE NOT [04:54]
3. I WOULD IF I COULD [04:15]
4. DID GOD FORGET DARFUR/WHAT GOD? [09:06]
5. AN INTIMATE CONVERASATION #1 [05:59]
6. AN INTIMATE CONVERASATION #2 [05:04]
7. NORTH STAR (FOR MAX ROACH) [03:27]
8. AN INTIMATE CONVERASATION #3 [11:31]
9. DOM’S MATRIX [06:41]
10. SNOWFLAKES ON FLOWERS [11:33]
11. AND THEN [07:29]
12. KING TO KING’S BISHOP [05:24]
Recorded at Alchemia, Krakow 1 november 2006
Joe McPhee - tenor saxophone
Mikołaj Trzaska - alto & C-melody saxophones, bass clarinet
Jay Rosen - drums
 
Отчёт Audiocheckera
AUDIOCHECKER v2.0 beta (build 457) - by Dester - opdester@freemail.hu
~~~~~~~~~~~~~~~~~~~~~~~~~~~~~~~~~~
-=== DO NOT EDIT THIS FILE! ===-
Path: ...\Joe McPhee, Mikolaj Trzaska, Jay Rosen - Intimate Conversations - 2007 - [FLAC]
01 -=- 01 - Was It Something I Said.flac -=- CDDA (99%)
02 -=- 02 - Maybe Not.flac -=- CDDA (100%)
03 -=- 03 - I Would If I Could.flac -=- CDDA (100%)
04 -=- 04 - Did God Forget Darfur.What God.flac -=- CDDA (100%)
05 -=- 05 - An Intimate Conversation #1.flac -=- CDDA (100%)
06 -=- 06 - An Intimate Conversation #2.flac -=- CDDA (99%)
07 -=- 07 - North Star (For Max Roach).flac -=- CDDA (100%)
08 -=- 08 - An Intimate Conversation #3.flac -=- CDDA (100%)
09 -=- 09 - Dom's Matrix.flac -=- CDDA (100%)
10 -=- 10 - Snowflakes On Flowers.flac -=- CDDA (100%)
11 -=- 11 - And Then.flac -=- CDDA (100%)
12 -=- 12 - King To King's Bishop.flac -=- CDDA (100%)
Summary 99,83% CDDA
178345604
 
cue
TITLE "Intimate Conversations"
PERFORMER "Joe McPhee, Mikolaj Trzaska, Jay Rosen"
REM GENRE "Free Jazz, Avant-Garde"
REM DATE "2007"
REM DISCID 9410E90C
FILE "01 - Was It Something I Said?.wav" WAVE
TRACK 01 AUDIO
TITLE "Was It Something I Said?"
PERFORMER "Joe McPhee, Mikolaj Trzaska, Jay Rosen"
INDEX 01 00:00:00
FILE "02 - Maybe Not.wav" WAVE
TRACK 02 AUDIO
TITLE "Maybe Not"
PERFORMER "Joe McPhee, Mikolaj Trzaska, Jay Rosen"
INDEX 01 00:00:00
FILE "03 - I Would If I Could.wav" WAVE
TRACK 03 AUDIO
TITLE "I Would If I Could"
PERFORMER "Joe McPhee, Mikolaj Trzaska, Jay Rosen"
INDEX 01 00:00:00
FILE "04 - Did God Forget Darfur/What God?.wav" WAVE
TRACK 04 AUDIO
TITLE "Did God Forget Darfur/What God?"
PERFORMER "Joe McPhee, Mikolaj Trzaska, Jay Rosen"
INDEX 01 00:00:00
FILE "05 - An Intimate Conversation #1.wav" WAVE
TRACK 05 AUDIO
TITLE "An Intimate Conversation #1"
PERFORMER "Joe McPhee, Mikolaj Trzaska, Jay Rosen"
INDEX 01 00:00:00
FILE "06 - An Intimate Conversation #2.wav" WAVE
TRACK 06 AUDIO
TITLE "An Intimate Conversation #2"
PERFORMER "Joe McPhee, Mikolaj Trzaska, Jay Rosen"
INDEX 01 00:00:00
FILE "07 - North Star (For Max Roach).wav" WAVE
TRACK 07 AUDIO
TITLE "North Star (For Max Roach)"
PERFORMER "Joe McPhee, Mikolaj Trzaska, Jay Rosen"
INDEX 01 00:00:00
FILE "08 - An Intimate Conversation #3.wav" WAVE
TRACK 08 AUDIO
TITLE "An Intimate Conversation #3"
PERFORMER "Joe McPhee, Mikolaj Trzaska, Jay Rosen"
INDEX 01 00:00:00
FILE "09 - Dom's Matrix.wav" WAVE
TRACK 09 AUDIO
TITLE "Dom's Matrix"
PERFORMER "Joe McPhee, Mikolaj Trzaska, Jay Rosen"
INDEX 01 00:00:00
FILE "10 - Snowflakes On Flowers.wav" WAVE
TRACK 10 AUDIO
TITLE "Snowflakes On Flowers"
PERFORMER "Joe McPhee, Mikolaj Trzaska, Jay Rosen"
INDEX 01 00:00:00
FILE "11 - And Then.wav" WAVE
TRACK 11 AUDIO
TITLE "And Then"
PERFORMER "Joe McPhee, Mikolaj Trzaska, Jay Rosen"
INDEX 01 00:00:00
FILE "12 - King To King's Bishop.wav" WAVE
TRACK 12 AUDIO
TITLE "King To King's Bishop"
PERFORMER "Joe McPhee, Mikolaj Trzaska, Jay Rosen"
INDEX 01 00:00:00
Any questions -> support@pro-jazz.com. По всем вопросам пишите -> support@pro-jazz.com
03:09
140
Нет комментариев. Ваш будет первым!