Вы используете незарегистрированную версию компонента "Вкладки"!

Поиск

(Contemporary Jazz) David Murray (James Blood Ulmer, Fred Hopkins, Sunny Murray) - Recording NYC. 1986 - 1986, FLAC (tracks+.cue), lossless

Треклист:
David Murray (James Blood Ulmer, Fred Hopkins, Sunny Murray) - Recording NYC. 1986
Жанр: Contemporary Jazz
Год выпуска диска: 1986
Производитель диска: Japan
Label: DIW Records 32DIW802CD
Аудио кодек: FLAC
Тип рипа: tracks+.cue + Artwork
Битрейт аудио: lossless
Продолжительность: 52:24
Происхождение рипа: собственный рип с оригинального диска.
Треклист:
01. Red Car 4:00
02. Long Goodbye 4:35
03. Kareem 8:30
04. Patricia 9:35
05. Light Years 14:15
Доп. информация:
David Murray - tenor saxophone
James Blood Ulmer - guitar
Fred Hopkins - bass
Sunny Murray - drums
Recorded May 10, 1986 at Sound Ideas, NYC.
 
EAC log
Exact Audio Copy V0.99 prebeta 5 from 4. May 2009
EAC extraction logfile from 4. September 2010, 12:48
David Murray / Recording NYC 1986
Used drive : HL-DT-STDVD-ROM GDR8162B Adapter: 1 ID: 1
Read mode : Secure
Utilize accurate stream : Yes
Defeat audio cache : Yes
Make use of C2 pointers : No
Read offset correction : 102
Overread into Lead-In and Lead-Out : Yes
Fill up missing offset samples with silence : Yes
Delete leading and trailing silent blocks : No
Null samples used in CRC calculations : Yes
Used interface : Installed external ASPI interface
Gap handling : Appended to previous track
Used output format : User Defined Encoder
Selected bitrate : 768 kBit/s
Quality : High
Add ID3 tag : No
Command line compressor : C:\Program Files\FLAC\flac.exe
Additional command line options : -V -8 -T "ARTIST=%a" -T "TITLE=%t" -T "ALBUM=%g" -T "TRACKNUMBER=%n" -T "GENRE=%m" %s
TOC of the extracted CD
Track | Start | Length | Start sector | End sector
---------------------------------------------------------
1 | 0:00.00 | 4:05.50 | 0 | 18424
2 | 4:05.50 | 4:35.70 | 18425 | 39119
3 | 8:41.45 | 8:33.08 | 39120 | 77602
4 | 17:14.53 | 11:14.65 | 77603 | 128217
5 | 28:29.43 | 9:37.02 | 128218 | 171494
6 | 38:06.45 | 14:20.13 | 171495 | 236007
Track 1
Filename D:\torrents.ru\! up\David Murray - New York\01 - Red Car.wav
Pre-gap length 0:00:02.00
Peak level 96.5 %
Track quality 100.0 %
Test CRC 6278A63A
Copy CRC 6278A63A
Track not present in AccurateRip database
Copy OK
Track 2
Filename D:\torrents.ru\! up\David Murray - New York\02 - Long Goodbye.wav
Peak level 91.1 %
Track quality 99.9 %
Test CRC 8CCA7A9D
Copy CRC 8CCA7A9D
Track not present in AccurateRip database
Copy OK
Track 3
Filename D:\torrents.ru\! up\David Murray - New York\03 - Kareem.wav
Peak level 88.5 %
Track quality 100.0 %
Test CRC 13D59194
Copy CRC 13D59194
Track not present in AccurateRip database
Copy OK
Track 4
Filename D:\torrents.ru\! up\David Murray - New York\04 - According to Webster.wav
Peak level 95.5 %
Track quality 100.0 %
Test CRC DFC5D4FF
Copy CRC DFC5D4FF
Track not present in AccurateRip database
Copy OK
Track 5
Filename D:\torrents.ru\! up\David Murray - New York\05 - Patricia.wav
Pre-gap length 0:00:01.73
Peak level 96.1 %
Track quality 100.0 %
Test CRC 2DF391E7
Copy CRC 2DF391E7
Track not present in AccurateRip database
Copy OK
Track 6
Filename D:\torrents.ru\! up\David Murray - New York\06 - Light Years.wav
Peak level 90.7 %
Track quality 100.0 %
Test CRC 344FB52D
Copy CRC 344FB52D
Track not present in AccurateRip database
Copy OK
None of the tracks are present in the AccurateRip database
No errors occurred
End of status report
 
cue
REM GENRE Jazz
REM DATE 1986
REM DISCID 410C4A06
REM COMMENT "ExactAudioCopy v0.99pb5"
PERFORMER "David Murray"
TITLE "Recording NYC 1986"
FILE "01 - Red Car.wav" WAVE
TRACK 01 AUDIO
TITLE "Red Car"
PERFORMER "David Murray"
INDEX 01 00:00:00
FILE "02 - Long Goodbye.wav" WAVE
TRACK 02 AUDIO
TITLE "Long Goodbye"
PERFORMER "David Murray"
INDEX 01 00:00:00
FILE "03 - Kareem.wav" WAVE
TRACK 03 AUDIO
TITLE "Kareem"
PERFORMER "David Murray"
INDEX 01 00:00:00
FILE "04 - According to Webster.wav" WAVE
TRACK 04 AUDIO
TITLE "According to Webster"
PERFORMER "David Murray"
INDEX 01 00:00:00
TRACK 05 AUDIO
TITLE "Patricia"
PERFORMER "David Murray"
INDEX 00 11:12:67
FILE "05 - Patricia.wav" WAVE
INDEX 01 00:00:00
FILE "06 - Light Years.wav" WAVE
TRACK 06 AUDIO
TITLE "Light Years"
PERFORMER "David Murray"
INDEX 01 00:00:00
По всем вопросам пишите личное сообщение пользователю M0p94ok.
03:08
160
Нет комментариев. Ваш будет первым!