Поиск

(Free Jazz, Jazzcore) [CD] Albatre - A Descent Into The Maelstrom - 2013, FLAC (tracks+.cue), lossless

(Free Jazz, Jazzcore) [CD] Albatre - A Descent Into The Maelstrom - 2013, FLAC (tracks+.cue), lossless
Треклист:
Albatre / A Descent Into The Maelström
Жанр: Free Jazz, Jazzcore
Носитель: CD
Страна-производитель диска: Portugal
Год издания: 2013
Издатель (лейбл): Shhpuma
Номер по каталогу: SHH005CD
Аудиокодек: FLAC (*.flac)
Тип рипа: tracks+.cue
Битрейт аудио: lossless
Продолжительность: 32:11
Источник (релизер): gssmg7
Наличие сканов в содержимом раздачи: да
Треклист:
1. Nautilus
2. Maelström
3. Aphotic Zone
4. Deep Trench
5. Vampyroteuthis Infernalis
6. Albatrossia
http://shhpuma.com/product/albatre-a-descent-into-maelstrom-2/
 
Лог создания рипа
Exact Audio Copy V1.0 beta 2 from 29. April 2011
EAC extraction logfile from 28. March 2014, 21:22
Albatre / A Descent Into Maelstrom
Used drive : Optiarc DVD RW AD-5280S Adapter: 1 ID: 1
Read mode : Secure
Utilize accurate stream : Yes
Defeat audio cache : Yes
Make use of C2 pointers : No
Read offset correction : 48
Overread into Lead-In and Lead-Out : No
Fill up missing offset samples with silence : Yes
Delete leading and trailing silent blocks : No
Null samples used in CRC calculations : Yes
Used interface : Installed external ASPI interface
Gap handling : Appended to previous track
Used output format : User Defined Encoder
Selected bitrate : 128 kBit/s
Quality : High
Add ID3 tag : No
Command line compressor : C:\Program Files\FLAC\flac.exe
Additional command line options : -V -8 -T "Genre=%genre%" -T "Artist=%artist%" -T "Title=%title%" -T "Album=%albumtitle%" -T "Date=%year%" -T "Tracknumber=%tracknr%" -T "Comment=%comment%" %source%
TOC of the extracted CD
Track | Start | Length | Start sector | End sector
---------------------------------------------------------
1 | 0:00.00 | 6:33.39 | 0 | 29513
2 | 6:33.39 | 7:18.46 | 29514 | 62409
3 | 13:52.10 | 7:03.09 | 62410 | 94143
4 | 20:55.19 | 2:20.45 | 94144 | 104688
5 | 23:15.64 | 4:02.30 | 104689 | 122868
6 | 27:18.19 | 4:53.20 | 122869 | 144863
Track 1
Filename C:\Albatre (2013) - A Descent Into Maelstrom\01 - Nautilus.wav
Pre-gap length 0:00:02.00
Peak level 100.0 %
Extraction speed 2.5 X
Track quality 100.0 %
Test CRC DE22F9E6
Copy CRC DE22F9E6
Track not present in AccurateRip database
Copy OK
Track 2
Filename C:\Albatre (2013) - A Descent Into Maelstrom\02 - Maelstrom.wav
Peak level 100.0 %
Extraction speed 3.0 X
Track quality 100.0 %
Test CRC B0268406
Copy CRC B0268406
Track not present in AccurateRip database
Copy OK
Track 3
Filename C:\Albatre (2013) - A Descent Into Maelstrom\03 - Aphotic Zone.wav
Peak level 100.0 %
Extraction speed 3.4 X
Track quality 100.0 %
Test CRC B60C48B9
Copy CRC B60C48B9
Track not present in AccurateRip database
Copy OK
Track 4
Filename C:\Albatre (2013) - A Descent Into Maelstrom\04 - Deep Trench.wav
Peak level 100.0 %
Extraction speed 3.1 X
Track quality 100.0 %
Test CRC DE224347
Copy CRC DE224347
Track not present in AccurateRip database
Copy OK
Track 5
Filename C:\Albatre (2013) - A Descent Into Maelstrom\05 - Vampyroteuthis Infernalis.wav
Peak level 100.0 %
Extraction speed 3.6 X
Track quality 100.0 %
Test CRC 833AF6A5
Copy CRC 833AF6A5
Track not present in AccurateRip database
Copy OK
Track 6
Filename C:\Albatre (2013) - A Descent Into Maelstrom\06 - Albatrossia.wav
Peak level 100.0 %
Extraction speed 3.9 X
Track quality 100.0 %
Test CRC 31268EF7
Copy CRC 31268EF7
Track not present in AccurateRip database
Copy OK
None of the tracks are present in the AccurateRip database
No errors occurred
End of status report
==== Log checksum B230BDD0AAB711335C89CE4E95FCD070A6C560FA99D7C1D9FE9E40D66CD78E12 ====
 
Содержание индексной карты (.CUE)
REM GENRE Jazz
REM DATE 2013
REM DISCID 50078B06
REM COMMENT "ExactAudioCopy v1.0b2"
PERFORMER "Albatre"
TITLE "A Descent Into Maelstrom"
FILE "01 - Nautilus.wav" WAVE
TRACK 01 AUDIO
TITLE "Nautilus"
PERFORMER "Albatre"
INDEX 01 00:00:00
FILE "02 - Maelstrom.wav" WAVE
TRACK 02 AUDIO
TITLE "Maelstrom "
PERFORMER "Albatre"
INDEX 01 00:00:00
FILE "03 - Aphotic Zone.wav" WAVE
TRACK 03 AUDIO
TITLE "Aphotic Zone"
PERFORMER "Albatre"
INDEX 01 00:00:00
FILE "04 - Deep Trench.wav" WAVE
TRACK 04 AUDIO
TITLE "Deep Trench"
PERFORMER "Albatre"
INDEX 01 00:00:00
FILE "05 - Vampyroteuthis Infernalis.wav" WAVE
TRACK 05 AUDIO
TITLE "Vampyroteuthis Infernalis"
PERFORMER "Albatre"
INDEX 01 00:00:00
FILE "06 - Albatrossia.wav" WAVE
TRACK 06 AUDIO
TITLE "Albatrossia"
PERFORMER "Albatre"
INDEX 01 00:00:00
 
Об альбоме (сборнике)
Today the new Clean Feed batch has arrived, and we're still struggling to get some of the previous releases reviewed. This album comes from Shhhpuma, the Portuguese label's side project, now featuring Albatre, a sax trio that brings us a refreshing and modern new sound. The trio is Hugo Costa on alto sax, Gonçalo Almeida on electric bass and German drummer Philipp Ernsting, but their take on jazz is anything but what you can expected. It sounds like the grunge version of jazz, with heavy moments of raw violence alternated with quieter melodic moments, like a mixture of Zu with Jim Black's Alasnoaxis. Bass and drums come with all the anger and energy of a rock or punk band, while the alto screams and wails full of distress and agony like only a sax can in the best of free jazz modes. The music is raw, direct, without embellishments and needless decoration. This is straight-in-your-ears power jazz, but then of the clever kind and with depth. A Descent Into The Maelstrom ... indeed! ~ stef, freejazzblog.org, august 8, 2013
Goncalo Almeida has appeared on the blog previously with the Lama trio and "Oneiros" on which he was responsible for most of the compositions. Do you remember the oniric landscapes he painted with the help of Susana Santos Silva (trumpet) and Greg Smith (drums)? If yes, do not expect them again. Albatre is a different sort of animal alltogether. A slightly brutal one. Albatre's joins together two portugese musicians based in Rotterdam and a drummer grom Germany, their debut is released by Clean Feed sublabel Shhpuma, and to know that Clean Feed has put Albatre in a special "out there" category says something. The other hint is the album's title "A Descent in the Maelstrom". So are you ready to jump into the abyss? If so, get aboard "Nautilus" that takes off slowly, with white noise, soft mallets on plates, a lotof resonating bass and a solemn sax melody. Soon enough the crazy takes over, a turmoil starts, and builds up a wall of noise that finds a resolution in a hypnotic drive and accumulated mass of sound. "Maelstrom" has some modular electronic effects that add even more darkness to the abyss already there between the fuzzy bass, screeching sax and broken drum beats. The pieces are connected together and "Maelstrom" falls down right into "Aphotic Zone" which gives a chance to catch your breath - small gongs, distant sound of distorted sax, recurrent and spare bass tones - it all create an atmospheric suspense, you can feel the danger luring behind the corner and the piece gathers speed and volume and intensity until the trio galopades away on a dense groove, unstoppable and straight-forward. The schizoid madness continues through the remaining three tracks, dense and heavy. The cd lasts barely over half an hour, ends with majestic "Albatrossia" (with horn section sound magnified thanks to some looping). "Descent in the Maelstrom" collides ultra-low bass, heavy and fast drums, paranoidal saxophone screams in order to create a freaky amalgam of metal, jazz, noise, punk, krautrock and else (it might sound more fun to add core or at the end of each of these or doom at the beginning or something similar). Albatre's musis is not for the light-hearted. Improvised in form and spirit, metal in materia it might proof to be too far off for many listeners on both sides of the barricade, but for those who are willing to stretch their ears and boundaries, it's a hell lot of perverse fun.
ps. the dark cover quite aptly captures the spirit of the music. ~ jazzalchemist.blogspot.ru, january 17, 2014
 
Состав
Hugo Costa - alto sax, loops
Goncalo Almeida - bass, effects
Philipp Ernsting - drums, electronics
По всем вопросам пишите личное сообщение пользователю M0p94ok.
00:42
210
Нет комментариев. Ваш будет первым!