Поиск

(Free Jazz, Jazz-Funk, Big Band) The 360 Degree Music Experience - In:Sanity - 1976, APE (image+.cue), lossless

Треклист:
The 360 Degree Music Experience / In:Sanity
Жанр: Free Jazz, Jazz-Funk, Big Band
Страна-производитель диска: Italy
Год издания диска: 1976
Издатель (лейбл): Black Saint
Номер по каталогу: 120006/7
Страна: US
Аудиокодек: APE (*.ape)
Тип рипа: image+.cue
Битрейт аудио: lossless
Продолжительность: 73:49
Источник (релизер): nnm.ru
Наличие сканов в содержимом раздачи: да
Треклист:
1 Tradewinds 6:31
2 In-Sanity Suite Part 1 (Skull Job) 6:42
3 In-Sanity Suite Part 2 (TM's Top) 4:25
4 In-Sanity Suite Part 3 (Complete Operation) 18:42
5 Open (for James Garrison) 21:30
6 Full, Deep and Mellow 6:31
7 Sahara 9:15
 
Лог создания рипа
Exact Audio Copy V0.99 prebeta 5 from 4. May 2009
EAC extraction logfile from 22. May 2010, 21:35
In:Sanity / The 360 Degree Music Experience
Used drive : TSSTcorpDVD+-RW TS-U633A Adapter: 0 ID: 1
Read mode : Secure
Utilize accurate stream : Yes
Defeat audio cache : Yes
Make use of C2 pointers : No
Read offset correction : 6
Overread into Lead-In and Lead-Out : No
Fill up missing offset samples with silence : Yes
Delete leading and trailing silent blocks : No
Null samples used in CRC calculations : Yes
Used interface : Native Win32 interface for Win NT & 2000
Used output format : Internal WAV Routines
Sample format : 44.100 Hz; 16 Bit; Stereo
TOC of the extracted CD
Track | Start | Length | Start sector | End sector
---------------------------------------------------------
1 | 0:00.00 | 6:22.55 | 0 | 28704
2 | 6:22.55 | 6:46.07 | 28705 | 59161
3 | 13:08.62 | 4:25.48 | 59162 | 79084
4 | 17:34.35 | 18:49.35 | 79085 | 163794
5 | 36:23.70 | 21:37.67 | 163795 | 261136
6 | 58:01.62 | 6:31.23 | 261137 | 290484
7 | 64:33.10 | 9:16.40 | 290485 | 332224
Range status and errors
Selected range
Filename C:\_Arc\EAC_Out\In Sanity - The 360 Degree Music Experience\In Sanity - The 360 Degree Music Experience.wav
Peak level 99.9 %
Range quality 100.0 %
Copy CRC BF2F45C3
Copy OK
No errors occurred
AccurateRip summary
Track 1 accurately ripped (confidence 1) [56BDFE7E]
Track 2 accurately ripped (confidence 1) [7E119E4A]
Track 3 accurately ripped (confidence 1) [05DF2972]
Track 4 accurately ripped (confidence 1) [54A1AB9F]
Track 5 accurately ripped (confidence 1) [18E285C4]
Track 6 accurately ripped (confidence 1) [A2B10889]
Track 7 accurately ripped (confidence 1) [B0395BFD]
All tracks accurately ripped
End of status report
 
Содержание индексной карты (.CUE)
REM GENRE Jazz
REM DATE 1976
REM DISCID 66114D07
REM COMMENT "ExactAudioCopy v0.99pb5"
PERFORMER "In:Sanity"
TITLE "The 360 Degree Music Experience"
FILE "In Sanity - The 360 Degree Music Experience.ape" WAVE
TRACK 01 AUDIO
TITLE "Tradewinds"
PERFORMER "In:Sanity"
INDEX 01 00:00:00
TRACK 02 AUDIO
TITLE "In:Sanity Suite Part I - Skull Job"
PERFORMER "In:Sanity"
INDEX 01 06:22:55
TRACK 03 AUDIO
TITLE "In:Sanity Suite Part II - Tm's Top"
PERFORMER "In:Sanity"
INDEX 01 13:08:62
TRACK 04 AUDIO
TITLE "In:Sanity Suite Part III - Complete Operation"
PERFORMER "In:Sanity"
INDEX 01 17:34:35
TRACK 05 AUDIO
TITLE "Open (for James Garrison)"
PERFORMER "In:Sanity"
INDEX 01 36:23:70
TRACK 06 AUDIO
TITLE "Full, Deep and Mellow"
PERFORMER "In:Sanity"
INDEX 01 58:01:62
TRACK 07 AUDIO
TITLE "Sahara"
PERFORMER "In:Sanity"
INDEX 01 64:33:10
 
Лог проверки качества
d:\>d:\aucdtect -d/-m0 d:\zzz\*.wav
auCDtect: CD records authenticity detector, version 0.8.2
Copyright (c) 2004 Oleg Berngardt. All rights reserved.
Copyright (c) 2004 Alexander Djourik. All rights reserved.
------------------------------------------------------------
Processing file: [01. Tradewinds.wav]
------------------------------------------------------------
This track looks like CDDA with probability 100%
------------------------------------------------------------
Processing file: [02. In-Sanity Suite Part I - Skull Job.wav]
------------------------------------------------------------
This track looks like CDDA with probability 100%
------------------------------------------------------------
Processing file: [03. In-Sanity Suite Part II - Tm's Top.wav]
------------------------------------------------------------
This track looks like CDDA with probability 100%
------------------------------------------------------------
Processing file: [04. In-Sanity Suite Part III - Complete Operation.wav]
------------------------------------------------------------
This track looks like CDDA with probability 100%
------------------------------------------------------------
Processing file: [05. Open (for James Garrison).wav]
------------------------------------------------------------
This track looks like CDDA with probability 100%
------------------------------------------------------------
Processing file: [06. Full, Deep and Mellow.wav]
------------------------------------------------------------
This track looks like CDDA with probability 100%
------------------------------------------------------------
Processing file: [07. Sahara.wav]
------------------------------------------------------------
This track looks like CDDA with probability 100%
------------------------------------------------------------
Final Conclusion:
------------------------------------------------------------
These tracks looks like CDDA with probability 100%
 
Скриншот спектра частот
 
Состав
Keith Marks: flute
Francis Haynes: steel drums
Hamiet Bluiett: baritone saxophone, clarinet, flute
Azar Lawrence: tenor saxophone
Titos Sompa: conga
Sunil Garg: sitar
Cecil McBee: bass
Dave Burrell: piano, organ, celeste
Beaver Harris: drums
Steel Ensemble (Francis Haynes, Roger Sardinha, Coleridge Barbour, Alston Jack, Michael Sorzano, Steve Sardinha, Lawrence McCarthy)
По всем вопросам пишите личное сообщение пользователю M0p94ok.
13:54
171
Нет комментариев. Ваш будет первым!