Вы используете незарегистрированную версию компонента "Вкладки"!

Поиск

(Free Jazz, Free Improvisation) Peter Brotzmann / Marino Pliakas / Michael Wertmuller - Full blast - 2006, FLAC (tracks+.cue), lossless

(Free Jazz, Free Improvisation) Peter Brotzmann / Marino Pliakas / Michael Wertmuller - Full blast - 2006, FLAC (tracks+.cue), lossless
Треклист:
Peter Brötzmann / Marino Pliakas / Michael Wertmüller - Full blast
Жанр: Free Jazz, Free Improvisation
Страна-производитель диска: Германия
Год издания диска: 2006
Издатель (лейбл): Jazzwerkstatt
Номер по каталогу: JW001
Страна: Германия, Швейцария
Аудиокодек: FLAC (*.flac)
Тип рипа: tracks+.cue
Битрейт аудио: lossless
Продолжительность: 44:52
Источник (релизер): вот.сиди (Avarance)
Наличие сканов в содержимом раздачи: нет
Треклист:
1. (06.27)
2. (08.30)
3. (04.22)
4. (14.20)
5. (11.10)
Recorded 6 February 2006 at LOFT, Köln.
 
Лог создания рипа
Exact Audio Copy V0.99 prebeta 5 from 4. May 2009
EAC extraction logfile from 24. June 2011, 8:17
Peter Brцtzmann, Marino Pliakas, Michael Wertmьller / Full Blast
Used drive : HL-DT-STDVDRAM GT30N Adapter: 0 ID: 0
Read mode : Secure
Utilize accurate stream : Yes
Defeat audio cache : Yes
Make use of C2 pointers : No
Read offset correction : 103
Overread into Lead-In and Lead-Out : No
Fill up missing offset samples with silence : Yes
Delete leading and trailing silent blocks : No
Null samples used in CRC calculations : Yes
Used interface : Native Win32 interface for Win NT & 2000
Gap handling : Appended to previous track
Used output format : L3Enc MP3 Encoder & Compatible
Selected bitrate : 320 kBit/s (Not available for all encoder)
Quality : High
Add ID3 tag : No
Command line compressor : C:\Program Files (x86)\Exact Audio Copy\Flac\flac.exe
Additional command line options : -8 -T "artist=%a" -T "title=%t" -T "album=%g" -T "date=%y" -T "tracknumber=%n" -T "genre=%m" %s
TOC of the extracted CD
Track | Start | Length | Start sector | End sector
---------------------------------------------------------
1 | 0:00.00 | 6:27.01 | 0 | 29025
2 | 6:27.01 | 8:30.63 | 29026 | 67338
3 | 14:57.64 | 4:22.41 | 67339 | 87029
4 | 19:20.30 | 14:20.47 | 87030 | 151576
5 | 33:41.02 | 11:10.48 | 151577 | 201874
Track 1
Filename C:\EACRips\Peter Brцtzmann, Marino Pliakas, Michael Wertmьller - 2006 - Full Blast\01 - 1.wav
Pre-gap length 0:00:02.00
Peak level 99.2 %
Track quality 100.0 %
Test CRC 97F8DF58
Copy CRC 97F8DF58
Cannot be verified as accurate (confidence 3) [076182A4], AccurateRip returned [275AFB7B]
Copy OK
Track 2
Filename C:\EACRips\Peter Brцtzmann, Marino Pliakas, Michael Wertmьller - 2006 - Full Blast\02 - 2.wav
Peak level 99.2 %
Track quality 100.0 %
Test CRC 5879E1F2
Copy CRC 5879E1F2
Cannot be verified as accurate (confidence 3) [B78C1FA8], AccurateRip returned [E7CA48AE]
Copy OK
Track 3
Filename C:\EACRips\Peter Brцtzmann, Marino Pliakas, Michael Wertmьller - 2006 - Full Blast\03 - 3.wav
Peak level 97.9 %
Track quality 100.0 %
Test CRC AFD48646
Copy CRC AFD48646
Cannot be verified as accurate (confidence 3) [2E9B0525], AccurateRip returned [6F9B5E85]
Copy OK
Track 4
Filename C:\EACRips\Peter Brцtzmann, Marino Pliakas, Michael Wertmьller - 2006 - Full Blast\04 - 4.wav
Peak level 99.2 %
Track quality 100.0 %
Test CRC EFFEE7CB
Copy CRC EFFEE7CB
Cannot be verified as accurate (confidence 3) [1257358C], AccurateRip returned [491CB129]
Copy OK
Track 5
Filename C:\EACRips\Peter Brцtzmann, Marino Pliakas, Michael Wertmьller - 2006 - Full Blast\05 - 5.wav
Peak level 99.2 %
Track quality 100.0 %
Test CRC 67A90D17
Copy CRC 67A90D17
Cannot be verified as accurate (confidence 3) [5D47DA3A], AccurateRip returned [127F99A0]
Copy OK
No tracks could be verified as accurate
You may have a different pressing from the one(s) in the database
No errors occurred
End of status report
 
Содержание индексной карты (.CUE)
REM GENRE Jazz
REM DATE 2006
REM DISCID 410A8305
REM COMMENT "ExactAudioCopy v0.99pb5"
FILE "01 - 1.wav" WAVE
TRACK 01 AUDIO
FLAGS DCP
INDEX 01 00:00:00
FILE "02 - 2.wav" WAVE
TRACK 02 AUDIO
FLAGS DCP
INDEX 01 00:00:00
FILE "03 - 3.wav" WAVE
TRACK 03 AUDIO
FLAGS DCP
INDEX 01 00:00:00
FILE "04 - 4.wav" WAVE
TRACK 04 AUDIO
FLAGS DCP
INDEX 01 00:00:00
FILE "05 - 5.wav" WAVE
TRACK 05 AUDIO
FLAGS DCP
INDEX 01 00:00:00
 
Лог проверки качества
AUDIOCHECKER v2.0 beta (build 457) - by Dester - opdester@freemail.hu
~~~~~~~~~~~~~~~~~~~~~~~~~~~~~~~~~~
-=== DO NOT EDIT THIS FILE! ===-
Path: ...\Full Blast
1 -=- 01 - 1.flac -=- CDDA (99%)
2 -=- 02 - 2.flac -=- CDDA (100%)
3 -=- 03 - 3.flac -=- CDDA (100%)
4 -=- 04 - 4.flac -=- CDDA (100%)
5 -=- 05 - 5.flac -=- CDDA (100%)
Summary 99,80% CDDA
141767908
 
Состав
Peter Brötzmann, alto saxophone, tenor saxophone, tarogato;
Marino Pliakas, electric bass;
Michael Wertmüller, drums.
По всем вопросам пишите личное сообщение пользователю M0p94ok.
13:53
190
Нет комментариев. Ваш будет первым!