Вы используете незарегистрированную версию компонента "Вкладки"!

Поиск

(Free Jazz) Jamie Saft / Cuong Vu - Ragged Jack - 1996, FLAC (tracks+.cue), lossless

(Free Jazz) Jamie Saft / Cuong Vu - Ragged Jack - 1996, FLAC (tracks+.cue), lossless
Треклист:
Jamie Saft / Cuong Vu - Ragged Jack
Жанр: Free Jazz
Год выпуска диска: 1996
Производитель диска: JP (AVANT Avan 068)
Аудио кодек: FLAC
Тип рипа: tracks+.cue
Битрейт аудио: lossless
Продолжительность: 63:09
Трэклист:
1 Garbo (5:05)
2 Mr. Mister (7:10)
3 Little Vina (9:58)
4 The Schmucklehead (12:50)
5 Mahunk (4:38)
6 In Hear (6:06)
7 Or Anything Else (4:18)
8 Karin (8:56)
9 Jack's In The House (3:22)
Artwork By [Design] - Ikue Mori
Composed By - D'Angelo(tracks: 6, 7) , Vu (tracks: 1, 3, 4, 9) , Saft (tracks: 2, 5, 8)
Drums - Jim Black
Piano - Jamie Saft
Saxophone [Alto], Clarinet [Bass] - Andrew D'Angelo
Trumpet - Cuong Vu
Доп. информация:
 
EAC log
Exact Audio Copy V0.99 prebeta 4 from 23. January 2008
EAC extraction logfile from 15. February 2009, 20:56
Jamie Saft & Cuong Vu / Ragged Jack
Used drive : Optiarc DVD RW AD-7200A Adapter: 0 ID: 3
Read mode : Secure
Utilize accurate stream : Yes
Defeat audio cache : Yes
Make use of C2 pointers : No
Read offset correction : 48
Overread into Lead-In and Lead-Out : No
Fill up missing offset samples with silence : Yes
Delete leading and trailing silent blocks : No
Null samples used in CRC calculations : Yes
Used interface : Installed external ASPI interface
Gap handling : Appended to previous track
Used output format : User Defined Encoder
Selected bitrate : 640 kBit/s
Quality : High
Add ID3 tag : No
Command line compressor : C:\Program Files\Exact Audio Copy\flac.exe
Additional command line options : • -8 -A tukey(0.25) -A gauss(0.1875) -b 4096 -V -T "artist=%a" -T "title=%t" -T "album=%g" -T "date=%y" -T "tracknumber=%n" -T "genre=%m" %s --sector-align
TOC of the extracted CD
Track | Start | Length | Start sector | End sector
---------------------------------------------------------
1 | 0:00.00 | 5:05.50 | 0 | 22924
2 | 5:05.50 | 7:41.62 | 22925 | 57561
3 | 12:47.37 | 9:58.45 | 57562 | 102456
4 | 22:46.07 | 12:50.08 | 102457 | 160214
5 | 35:36.15 | 4:40.02 | 160215 | 181216
6 | 40:16.17 | 6:06.63 | 181217 | 208729
7 | 46:23.05 | 4:22.12 | 208730 | 228391
8 | 50:45.17 | 9:00.30 | 228392 | 268921
9 | 59:45.47 | 3:23.23 | 268922 | 284169
Track 1
Filename H:\Jamie Saft & Cuong Vu - Ragged Jack\01 - Jamie Saft - Garbo .wav
Pre-gap length 0:00:02.00
Peak level 94.4 %
Test CRC 4CFDC49D
Copy CRC 4CFDC49D
Copy OK
Track 2
Filename H:\Jamie Saft & Cuong Vu - Ragged Jack\02 - Jamie Saft - Mr. Mister .wav
Peak level 94.4 %
Test CRC A633F9CA
Copy CRC A633F9CA
Copy OK
Track 3
Filename H:\Jamie Saft & Cuong Vu - Ragged Jack\03 - Jamie Saft - Little Vina .wav
Peak level 94.4 %
Test CRC 92BEB672
Copy CRC 92BEB672
Copy OK
Track 4
Filename H:\Jamie Saft & Cuong Vu - Ragged Jack\04 - Jamie Saft - The Schmucklehead .wav
Peak level 94.4 %
Test CRC E6602393
Copy CRC E6602393
Copy OK
Track 5
Filename H:\Jamie Saft & Cuong Vu - Ragged Jack\05 - Jamie Saft - Mahunk .wav
Peak level 93.7 %
Test CRC FD02674A
Copy CRC FD02674A
Copy OK
Track 6
Filename H:\Jamie Saft & Cuong Vu - Ragged Jack\06 - Jamie Saft - In Hear .wav
Peak level 94.4 %
Test CRC 084E6EF1
Copy CRC 084E6EF1
Copy OK
Track 7
Filename H:\Jamie Saft & Cuong Vu - Ragged Jack\07 - Jamie Saft - Or Anything Else .wav
Peak level 94.4 %
Test CRC FB7F5CA8
Copy CRC FB7F5CA8
Copy OK
Track 8
Filename H:\Jamie Saft & Cuong Vu - Ragged Jack\08 - Jamie Saft - Karin .wav
Peak level 94.4 %
Test CRC FFDAB54A
Copy CRC FFDAB54A
Copy OK
Track 9
Filename H:\Jamie Saft & Cuong Vu - Ragged Jack\09 - Jamie Saft - Jack's In The House .wav
Peak level 94.4 %
Test CRC C1387435
Copy CRC C1387435
Copy OK
No errors occurred
End of status report
Any questions -> support@pro-jazz.com. По всем вопросам пишите -> support@pro-jazz.com
08:18
171
Нет комментариев. Ваш будет первым!