Вы используете незарегистрированную версию компонента "Вкладки"!

Поиск

(Avantgarde, Post-Everything, Avant-Prog) Marc Ribot's Ceramic Dog - Party Intellectuals - 2008, FLAC (tracks+.cue), lossless

(Avantgarde, Post-Everything, Avant-Prog) Marc Ribot's Ceramic Dog - Party Intellectuals - 2008, FLAC (tracks+.cue), lossless
Треклист:
Marc Ribot's Ceramic Dog - Party Intellectuals
Жанр: Avantgarde, Post-Everything, Avant-Prog
Год выпуска диска: 2008
Производитель диска: US (Pi Recordings Pi27)
Аудио кодек: FLAC
Тип рипа: tracks+.cue
Битрейт аудио: lossless
Продолжительность: 68:38
Трэклист:
1. Break on Through (3:44)
2. Party Intellectuals (5:50)
3. Todo el Mundo Es Kitsch (5:11)
4. When We Were Young And We Were Freaks (8:18)
5. Digital Handshake (10:15)
6. Bateau (4:15)
7. For Malena (3:20)
8. Pinch (4:43)
9. Girlfriend (3:35)
10. Midost (10:04)
11. ShSh ShSh (5:49)
12. Never Better (3:29)
Marc Ribot – guitar, vocals
Shahzad Ismaily – bass guitar, vocals, Moog synthesizer
Ches Smith – drum kit, percussion, vocals, electronics
Janice Cruz – vocals
Jenni Quilter – vocals
Martín Verajano – percussion
Доп. информация:
 
EAC log
EAC extraction logfile from 23. June 2008, 21:41 for CD
Marc Ribot's Ceramic Dog / Party Intellectuals
Used drive : LITE-ON DVDRW SHW-160P6S Adapter: 1 ID: 1
Read mode : Secure with NO C2, accurate stream, disable cache
Read offset correction : 6
Overread into Lead-In and Lead-Out : No
Used output format : C:\Program Files\FLAC\flac.exe (User Defined Encoder)
128 kBit/s
Additional command line options : -V -8 -T "artist=%a" -T "title=%t" -T "album=%g" -T "date=%y" -T "tracknumber=%n" -T "genre=%m" %s
Other options :
Fill up missing offset samples with silence : Yes
Delete leading and trailing silent blocks : No
Installed external ASPI interface
Track 1
Filename G:\Rips\CD\Marc Ribot's Ceramic Dog - Party Intellectuals [FLAC]\01 - Break on Through.wav
Pre-gap length 0:00:02.00
Peak level 100.0 %
Track quality 99.9 %
Test CRC 091D09D1
Copy CRC 091D09D1
Copy OK
Track 2
Filename G:\Rips\CD\Marc Ribot's Ceramic Dog - Party Intellectuals [FLAC]\02 - Party Intellectuals.wav
Peak level 100.0 %
Track quality 99.9 %
Test CRC E6BF4AE3
Copy CRC E6BF4AE3
Copy OK
Track 3
Filename G:\Rips\CD\Marc Ribot's Ceramic Dog - Party Intellectuals [FLAC]\03 - Todo El Mundo Es Kitsch.wav
Pre-gap length 0:00:01.00
Peak level 100.0 %
Track quality 100.0 %
Test CRC CE21465F
Copy CRC CE21465F
Copy OK
Track 4
Filename G:\Rips\CD\Marc Ribot's Ceramic Dog - Party Intellectuals [FLAC]\04 - When We Were Young and We Were Freaks.wav
Peak level 100.0 %
Track quality 100.0 %
Test CRC 6234FF24
Copy CRC 6234FF24
Copy OK
Track 5
Filename G:\Rips\CD\Marc Ribot's Ceramic Dog - Party Intellectuals [FLAC]\05 - Digital Handshake.wav
Peak level 100.0 %
Track quality 100.0 %
Test CRC B606A3CC
Copy CRC B606A3CC
Copy OK
Track 6
Filename G:\Rips\CD\Marc Ribot's Ceramic Dog - Party Intellectuals [FLAC]\06 - Bateau.wav
Peak level 79.8 %
Track quality 99.9 %
Test CRC F5DB1EAC
Copy CRC F5DB1EAC
Copy OK
Track 7
Filename G:\Rips\CD\Marc Ribot's Ceramic Dog - Party Intellectuals [FLAC]\07 - For Malena.wav
Peak level 100.0 %
Track quality 100.0 %
Test CRC 80057355
Copy CRC 80057355
Copy OK
Track 8
Filename G:\Rips\CD\Marc Ribot's Ceramic Dog - Party Intellectuals [FLAC]\08 - Pinch.wav
Peak level 100.0 %
Track quality 100.0 %
Test CRC C524452D
Copy CRC C524452D
Copy OK
Track 9
Filename G:\Rips\CD\Marc Ribot's Ceramic Dog - Party Intellectuals [FLAC]\09 - Girlfriend.wav
Peak level 100.0 %
Track quality 100.0 %
Test CRC FE903FCE
Copy CRC FE903FCE
Copy OK
Track 10
Filename G:\Rips\CD\Marc Ribot's Ceramic Dog - Party Intellectuals [FLAC]\10 - Midost.wav
Peak level 100.0 %
Track quality 99.9 %
Test CRC E23B5F8C
Copy CRC E23B5F8C
Copy OK
Track 11
Filename G:\Rips\CD\Marc Ribot's Ceramic Dog - Party Intellectuals [FLAC]\11 - ShSh ShSh.wav
Peak level 70.7 %
Track quality 100.0 %
Test CRC 36E7186A
Copy CRC 36E7186A
Copy OK
Track 12
Filename G:\Rips\CD\Marc Ribot's Ceramic Dog - Party Intellectuals [FLAC]\12 - Never Better.wav
Pre-gap length 0:00:01.00
Peak level 100.0 %
Track quality 100.0 %
Test CRC 6FE14F2A
Copy CRC 6FE14F2A
Copy OK
No errors occured
End of status report
 
Отчет CueTools
[CUETools log; Date: 22.04.2011 0:23:46; Version: 2.1.1]
[CTDB TOCID: lNMFAUcaa0OurYI9S7Erl9Zg_3Q-] disk not present in database.
[AccurateRip ID: 001ef92d-01228fe0-b010160c] found.
Track [ CRC ] Status
01 [e5753927] (8/8) Accurately ripped
02 [24ce267a] (8/8) Accurately ripped
03 [153bca94] (8/8) Accurately ripped
04 [1175005d] (8/8) Accurately ripped
05 [da075964] (8/8) Accurately ripped
06 [82f395e0] (8/8) Accurately ripped
07 [504ad638] (8/8) Accurately ripped
08 [b473869c] (8/8) Accurately ripped
09 [593ee79d] (8/8) Accurately ripped
10 [97152099] (8/8) Accurately ripped
11 [f60abac7] (8/8) Accurately ripped
12 [d314d619] (7/7) Accurately ripped
Track Peak [ CRC32 ] [W/O NULL] [ LOG ]
-- 100,0 [45753ECC] [417D5D40]
01 100,0 [091D09D1] [2CEF83EA] CRC32
02 100,0 [E6BF4AE3] [76485485] CRC32
03 100,0 [CE21465F] [84B6E550] CRC32
04 100,0 [6234FF24] [4A696543] CRC32
05 100,0 [B606A3CC] [746985D0] CRC32
06 79,8 [F5DB1EAC] [5FA92E60] CRC32
07 100,0 [80057355] [1DC0618E] CRC32
08 100,0 [C524452D] [A0981F84] CRC32
09 100,0 [FE903FCE] [FA1CC4BD] CRC32
10 100,0 [E23B5F8C] [73930940] CRC32
11 70,7 [36E7186A] [10853C16] CRC32
12 100,0 [6FE14F2A] [B78E5CA0] CRC32
 
Pi Records
Ceramic Dog
1. chien de faience: expression: frozen with emotion, as in the perfectly still moment before a fight breaks out.
2. Ultimate kitsch object.
3. A free/punk/funk/experimental/psychedelic/post electronica collective, featuring marc ribot (cubanos postizos, john zorn, tom waits, etc etc), plus two of the best young players on the new york/california underground improv/experimental rock scene, shazad ismailly (bass) and chess smith (drums)
4. Not a ‘project’: a real band. “Marc Ribot’s new power trio, filled out by the remarkable versatile rhythm team of bassist Shahzad Ismaily and drummer Ches Smith, is his rawest band in ages.” (TimeOut NY)
Party Intellectuals is the debut recording from Marc Ribot’s Ceramic Dog, a post-everything band combining the energies of two masters of downtown New York City mayhem: guitarist/vocalist Marc Ribot (Tom Waits, John Zorn, Robert Plant, T-Bone Burnett, Marianne Faithful, Lounge Lizards, Elvis Costello) and bassist Shahzad Ismaily (Laurie Anderson, Will Oldham, Jolie Holland, Secret Chiefs 3), with West Coast indie/experimental genius drummer Ches Smith (Xiu Xiu, Secret Chiefs 3, Trevor Dunn’s Trio Convulsant). Ribot is a widely recognized original on the guitar, with influence across multiple genres of music, including rock, jazz, punk, Latin, soul, 80s No-Wave, avant-garde and noise. Ceramic Dog draws all of this, along with Ismaily and Smith’s indie / electronica experimentation, into the power-packed Party Intellectuals.
Ceramic Dog grew out of a post 9-11 bucket list, when Ribot decided to find out what would happen if he did away with the hyphens haunting his earlier projects: the punk-Latin “Cubanos Postizos,” the punk-experimental “Shrek,” and the punk-Albert Ayler “Spiritual Unity.” It took several years of searching before Ribot found, in Ches Smith and Shahzad Ismaily, the rhythm section with the energy for The Thing itself. Says Ribot, “This is the first time since high school I’ve been in a real rock band. We actually get together to rehearse just for the fun of it, even when we don’t have gigs!”
The name Ceramic Dog is from the French expression “chien de faïence,” meaning frozen with emotion – like bristling dogs the moment before they fight, or lovers immobilized in one another’s gaze. Live and on Party Intellectuals, the band aims at that intensity, creating hypnotic moments of ecstasy, violence, idiocy, beauty; in other words – pure Rock and Roll.
Any questions -> support@pro-jazz.com. По всем вопросам пишите -> support@pro-jazz.com
08:19
268
Нет комментариев. Ваш будет первым!