Поиск

(Free Jazz, Improvised Music) [CD] Enterout Trio - Pink Ivory - 2009, FLAC (tracks+.cue), lossless

(Free Jazz, Improvised Music) [CD] Enterout Trio - Pink Ivory - 2009, FLAC (tracks+.cue), lossless
Треклист:
Enterout Trio / Pink Ivory
Жанр: Free Jazz, Improvised Music
Носитель: CD
Страна-производитель диска (релиза): Poland
Год издания: 2009
Издатель (лейбл): Multikulti Project
Номер по каталогу: MPI010
Страна исполнителя (группы): Poland
Аудиокодек: FLAC (*.flac)
Тип рипа: tracks+.cue
Битрейт аудио: lossless
Продолжительность: 50:31
Источник (релизер): dondon
Наличие сканов в содержимом раздачи: back
Треклист:
01. Terminus
02. improvisation 1
03. improvisation 2
04. Pink Ivory
05. Księżycowy
06. Sorrow
07. Robaczek
08. improvisation 3
Released December 11, 2009
Tracks 1, 2, 3, 4 & 8 recorded at MDK Lubaczów, June 2009 by Mariusz Łeski. Mixed by Mariusz Łeski.
Tracks 5, 6 & 7 recorded at Dragon Club, Poznań September 2009 by Maciej Frycz. Mixed by Maciej Frycz.
Mastered by Bartłomiej Frank, Albert Hofmann Studio.
 
Состав
Piotr Mełech: clarinet & bass clarinet
Adam Wróblewski: cello
Sebastian Grzesiak: drums
 
freejazzblog.org
Enterout Trio - Pink Ivory (Multikulti, 2010) ****
When the Cracow Klezmer Band stopped playing, I was sad, because I liked their combination of traditional music with jazz and classical, of the dark menace behind the joyful themes, the combination of melancholy and aesthetic beauty, combining entertainment with virtuosity. Now, the Enterout Trio, equally Polish, is here with the same ingredients, but making a different stew out of it, more jazz, rawer, more adventurous. No klezmer this time, but rhythmic, melodic and lyrical improvisations full of gloom and foreboding.
Piotr Mełech plays clarinet and bass clarinet, Adam Wróblewski plays cello, and Sebastian Grzesiak drums. With just the three of them, they alternate composed with fully improvised pieces. The first track, "Terminus", combines it all: a somewhat abstract intro evolves into a forward driven rhythm, with the cello's supportive drone setting the ideal backdrop for the clarinet's joyful theme followed by free improvisation, and when the rhythm slows down again, the drums goes and the clarinet and bowed cello converse in a modern classical way, then the cello goes forth on its own, full of vulnerable hesitancy and clear of tone, tearing the composition out of its pattern and pushing it deep into uncharted territory, yet without losing its inherent lyricism, and when the clarinet and drums return, they rejoin the - now mournful - theme. The improvised pieces vary between free improv and melodious creativity. The longest piece, "Księżycowy" ("Lunar"), is a gem, but then one of terror and madness, with a dark unison theme that develops into nightmarish improvisations and volumes of sound you wouldn't expect from a trio. A great album: excellent musicians and the coherence of their creative vision is even more impressive if you know that this is only their debut.
There are some clips to be found on Youtube, but the sound quality is so bad, that I don't share it.
© stef
 
Лог создания рипа
Exact Audio Copy V1.0 beta 2 from 29. April 2011
EAC extraction logfile from 28. October 2011, 18:05
Enterout Trio / Pink Ivory
Used drive : PIONEER DVD-RW DVR-112D Adapter: 1 ID: 0
Read mode : Secure
Utilize accurate stream : Yes
Defeat audio cache : Yes
Make use of C2 pointers : No
Read offset correction : 48
Overread into Lead-In and Lead-Out : No
Fill up missing offset samples with silence : Yes
Delete leading and trailing silent blocks : No
Null samples used in CRC calculations : Yes
Used interface : Native Win32 interface for Win NT & 2000
Gap handling : Appended to previous track
Used output format : User Defined Encoder
Selected bitrate : 768 kBit/s
Quality : High
Add ID3 tag : No
Command line compressor : C:\Program Files\Exact Audio Copy\flac.exe
Additional command line options : -8 -V -T "ARTIST=%artist%" -T "TITLE=%title%" -T "ALBUM=%albumtitle%" -T "DATE=%year%" -T "TRACKNUMBER=%tracknr%" -T "TOTALTRACKS=%numtracks%" -T "GENRE=%genre%" -T "ALBUMARTIST=%albumartist%" -T "ALBUM ARTIST=%albumartist%
TOC of the extracted CD
Track | Start | Length | Start sector | End sector
---------------------------------------------------------
1 | 0:00.00 | 10:54.70 | 0 | 49119
2 | 10:54.70 | 3:01.24 | 49120 | 62718
3 | 13:56.19 | 2:22.36 | 62719 | 73404
4 | 16:18.55 | 3:29.53 | 73405 | 89132
5 | 19:48.33 | 12:13.55 | 89133 | 144162
6 | 32:02.13 | 7:43.31 | 144163 | 178918
7 | 39:45.44 | 7:39.52 | 178919 | 213395
8 | 47:25.21 | 3:05.30 | 213396 | 227300
Track 1
Filename C:\Temp\01 - Terminus.wav
Pre-gap length 0:00:02.00
Peak level 98.8 %
Extraction speed 5.2 X
Track quality 100.0 %
Test CRC 7C7F5B5B
Copy CRC 7C7F5B5B
Track not present in AccurateRip database
Copy OK
Track 2
Filename C:\Temp\02 - improvisation 1.wav
Peak level 98.9 %
Extraction speed 5.2 X
Track quality 100.0 %
Test CRC 1B95597F
Copy CRC 1B95597F
Track not present in AccurateRip database
Copy OK
Track 3
Filename C:\Temp\03 - improvisation 2.wav
Pre-gap length 0:00:01.74
Peak level 99.3 %
Extraction speed 5.2 X
Track quality 100.0 %
Test CRC C157EC1C
Copy CRC C157EC1C
Track not present in AccurateRip database
Copy OK
Track 4
Filename C:\Temp\04 - Pink Ivory.wav
Pre-gap length 0:00:01.74
Peak level 99.0 %
Extraction speed 5.9 X
Track quality 100.0 %
Test CRC C8F1D9FE
Copy CRC C8F1D9FE
Track not present in AccurateRip database
Copy OK
Track 5
Filename C:\Temp\05 - Ksiezycowy.wav
Pre-gap length 0:00:01.15
Peak level 99.5 %
Extraction speed 7.0 X
Track quality 99.9 %
Test CRC DED4F222
Copy CRC DED4F222
Track not present in AccurateRip database
Copy OK
Track 6
Filename C:\Temp\06 - Sorrow.wav
Pre-gap length 0:00:01.74
Peak level 99.1 %
Extraction speed 7.8 X
Track quality 100.0 %
Test CRC AC888563
Copy CRC AC888563
Track not present in AccurateRip database
Copy OK
Track 7
Filename C:\Temp\07 - Robaczek.wav
Pre-gap length 0:00:01.39
Peak level 99.5 %
Extraction speed 8.3 X
Track quality 100.0 %
Test CRC E7E7E662
Copy CRC E7E7E662
Track not present in AccurateRip database
Copy OK
Track 8
Filename C:\Temp\08 - improvisation 3.wav
Pre-gap length 0:00:01.55
Peak level 99.2 %
Extraction speed 7.8 X
Track quality 100.0 %
Test CRC C5A5678A
Copy CRC C5A5678A
Track not present in AccurateRip database
Copy OK
None of the tracks are present in the AccurateRip database
No errors occurred
End of status report
==== Log checksum DCC3AF97DAF419624251C9A2EE3760F548CF416C58B0F1610DE915BF660623E5 ====
 
Содержание индексной карты (.CUE)
REM GENRE Jazz
REM DATE 2009
REM DISCID 7B0BD608
REM COMMENT "ExactAudioCopy v1.0b2"
PERFORMER "Enterout Trio"
TITLE "Pink Ivory"
FILE "01 - Terminus.wav" WAVE
TRACK 01 AUDIO
TITLE "Terminus"
PERFORMER "Enterout Trio"
FLAGS DCP
INDEX 01 00:00:00
FILE "02 - improvisation 1.wav" WAVE
TRACK 02 AUDIO
TITLE "improvisation 1"
PERFORMER "Enterout Trio"
FLAGS DCP
INDEX 01 00:00:00
TRACK 03 AUDIO
TITLE "improvisation 2"
PERFORMER "Enterout Trio"
FLAGS DCP
INDEX 00 02:59:25
FILE "03 - improvisation 2.wav" WAVE
INDEX 01 00:00:00
TRACK 04 AUDIO
TITLE "Pink Ivory"
PERFORMER "Enterout Trio"
FLAGS DCP
INDEX 00 02:20:37
FILE "04 - Pink Ivory.wav" WAVE
INDEX 01 00:00:00
TRACK 05 AUDIO
TITLE "Ksiezycowy"
PERFORMER "Enterout Trio"
FLAGS DCP
INDEX 00 03:28:38
FILE "05 - Ksiezycowy.wav" WAVE
INDEX 01 00:00:00
TRACK 06 AUDIO
TITLE "Sorrow"
PERFORMER "Enterout Trio"
FLAGS DCP
INDEX 00 12:11:56
FILE "06 - Sorrow.wav" WAVE
INDEX 01 00:00:00
TRACK 07 AUDIO
TITLE "Robaczek"
PERFORMER "Enterout Trio"
FLAGS DCP
INDEX 00 07:41:67
FILE "07 - Robaczek.wav" WAVE
INDEX 01 00:00:00
TRACK 08 AUDIO
TITLE "improvisation 3"
PERFORMER "Enterout Trio"
FLAGS DCP
INDEX 00 07:37:72
FILE "08 - improvisation 3.wav" WAVE
INDEX 01 00:00:00
Другие мои раздачи на трекере
20:40
268
Нет комментариев. Ваш будет первым!