Поиск

(Avant-Garde Jazz, Free Jazz) [CD] Gyorgy Szabados Trio - Elfelejtett énekek (Elfelejtett enekek) (Forgotten Songs) - 1996, FLAC (tracks+.cue), lossless

(Avant-Garde Jazz, Free Jazz) [CD] Gyorgy Szabados Trio - Elfelejtett énekek (Elfelejtett enekek) (Forgotten Songs) - 1996, FLAC (tracks+.cue), lossless
György Szabados Trio / Elfelejtett énekek (Forgotten Songs)
Жанр: Avant-Garde Jazz, Free Jazz
Носитель: CD
Страна-производитель диска (релиза): Hungary
Год издания: 1996
Издатель (лейбл): Fono Records
Номер по каталогу: FA-012-1
Страна исполнителя (группы): Hungary
Аудиокодек: FLAC (*.flac)
Тип рипа: tracks+.cue
Битрейт аудио: lossless
Продолжительность: 01:11:35
Источник (релизер): weareborg (рип szakall)
Наличие сканов в содержимом раздачи: да
http://xn--gyrgy-szabados-wpb.com/album/forgotten-songs-elfelejtett-enekek/
Треклист:
01. Elöjáték (Prelude) 5:21
02. Elfelejtett ének (Forgotten Song) 9:09
03. Közjáték (Intermezzo) 2:25
04. Rozsdamező (Rustfield) 15:50
05. Közjáték (Intermezzo) 2:31
06. Szól a figemadár (You Hear The Figbird Singing) 10:13
07. Trió (Trio) 26:03
Titles 2, 4, 6, and 7 composed by: György Szabados
Recorded: 1994 live at Jazz Haus Koppenhagen in Copenhagen, Denmark
Produced by Balogh Tibor (FONÓ)
Co-Producer: Czabán György
Sound engineer: Kölcsényi Attila
 
Состав
György Szabados - piano, voice
Mihaly Dudas Dresch - reeds
Tamas Geröly - drums, percussion
 
Лог создания рипа
Exact Audio Copy V0.99 prebeta 5 from 4. May 2009
EAC extraction logfile from 9. April 2011, 0:14
Szabados Trio / Forgotten Songs
Used drive : TSSTcorpCDDVDW SH-S222A Adapter: 1 ID: 0
Read mode : Secure
Utilize accurate stream : Yes
Defeat audio cache : Yes
Make use of C2 pointers : No
Read offset correction : 6
Overread into Lead-In and Lead-Out : No
Fill up missing offset samples with silence : Yes
Delete leading and trailing silent blocks : No
Null samples used in CRC calculations : Yes
Used interface : Installed external ASPI interface
Gap handling : Appended to previous track
Used output format : User Defined Encoder
Selected bitrate : 768 kBit/s
Quality : High
Add ID3 tag : No
Command line compressor : C:\Tool\Compress\FLAC\flac.exe
Additional command line options : -8 -V -T "ARTIST=%a" -T "TITLE=%t" -T "ALBUM=%g" -T "DATE=%y" -T "TRACKNUMBER=%n" -T "TOTALTRACKS=%x" -T "GENRE=%m" -T "ALBUM ARTIST=%v" -T "COMMENT=EAC V0.99 prebeta 5, Secure Mode, Test & Copy, AccurateRip, FLAC -8" %s
TOC of the extracted CD
Track | Start | Length | Start sector | End sector
---------------------------------------------------------
1 | 0:00.00 | 5:21.13 | 0 | 24087
2 | 5:21.13 | 9:09.22 | 24088 | 65284
3 | 14:30.35 | 2:25.60 | 65285 | 76219
4 | 16:56.20 | 15:49.70 | 76220 | 147464
5 | 32:46.15 | 2:31.23 | 147465 | 158812
6 | 35:17.38 | 10:13.65 | 158813 | 204852
7 | 45:31.28 | 26:03.62 | 204853 | 322139
Track 1
Filename C:\! UPLOAD\Szabados Trio - Forgotten Songs (1994) [FLAC] {Fono}\01 - Prelude.wav
Pre-gap length 0:00:02.00
Peak level 100.0 %
Track quality 100.0 %
Test CRC 71B0CE4C
Copy CRC 71B0CE4C
Track not present in AccurateRip database
Copy OK
Track 2
Filename C:\! UPLOAD\Szabados Trio - Forgotten Songs (1994) [FLAC] {Fono}\02 - Forgotten Songs.wav
Peak level 100.0 %
Track quality 100.0 %
Test CRC E927EB71
Copy CRC E927EB71
Track not present in AccurateRip database
Copy OK
Track 3
Filename C:\! UPLOAD\Szabados Trio - Forgotten Songs (1994) [FLAC] {Fono}\03 - Intermezzo.wav
Peak level 87.2 %
Track quality 99.9 %
Test CRC 24FA8591
Copy CRC 24FA8591
Track not present in AccurateRip database
Copy OK
Track 4
Filename C:\! UPLOAD\Szabados Trio - Forgotten Songs (1994) [FLAC] {Fono}\04 - Rustfield.wav
Peak level 100.0 %
Track quality 100.0 %
Test CRC C8656E60
Copy CRC C8656E60
Track not present in AccurateRip database
Copy OK
Track 5
Filename C:\! UPLOAD\Szabados Trio - Forgotten Songs (1994) [FLAC] {Fono}\05 - Intermezzo.wav
Peak level 92.2 %
Track quality 100.0 %
Test CRC 44C0F106
Copy CRC 44C0F106
Track not present in AccurateRip database
Copy OK
Track 6
Filename C:\! UPLOAD\Szabados Trio - Forgotten Songs (1994) [FLAC] {Fono}\06 - You Hear The Fig-Bird Singing.wav
Peak level 100.0 %
Track quality 100.0 %
Test CRC 20C6DD87
Copy CRC 20C6DD87
Track not present in AccurateRip database
Copy OK
Track 7
Filename C:\! UPLOAD\Szabados Trio - Forgotten Songs (1994) [FLAC] {Fono}\07 - Trio.wav
Peak level 100.0 %
Track quality 100.0 %
Test CRC A2C57D9D
Copy CRC A2C57D9D
Track not present in AccurateRip database
Copy OK
None of the tracks are present in the AccurateRip database
No errors occurred
End of status report
 
Содержание индексной карты (.CUE)
REM GENRE "Free Jazz"
REM DATE 1996
REM DISCID 5910C707
REM COMMENT "ExactAudioCopy v0.99pb5"
PERFORMER "Szabados Trio"
TITLE "Forgotten Songs"
FILE "01 - Prelude.wav" WAVE
TRACK 01 AUDIO
TITLE "Prelude"
PERFORMER "Szabados Trio"
INDEX 01 00:00:00
FILE "02 - Forgotten Songs.wav" WAVE
TRACK 02 AUDIO
TITLE "Forgotten Songs"
PERFORMER "Szabados Trio"
INDEX 01 00:00:00
FILE "03 - Intermezzo.wav" WAVE
TRACK 03 AUDIO
TITLE "Intermezzo"
PERFORMER "Szabados Trio"
INDEX 01 00:00:00
FILE "04 - Rustfield.wav" WAVE
TRACK 04 AUDIO
TITLE "Rustfield"
PERFORMER "Szabados Trio"
INDEX 01 00:00:00
FILE "05 - Intermezzo.wav" WAVE
TRACK 05 AUDIO
TITLE "Intermezzo"
PERFORMER "Szabados Trio"
INDEX 01 00:00:00
FILE "06 - You Hear The Fig-Bird Singing.wav" WAVE
TRACK 06 AUDIO
TITLE "You Hear The Fig-Bird Singing"
PERFORMER "Szabados Trio"
INDEX 01 00:00:00
FILE "07 - Trio.wav" WAVE
TRACK 07 AUDIO
TITLE "Trio"
PERFORMER "Szabados Trio"
INDEX 01 00:00:00
21:40
404
Нет комментариев. Ваш будет первым!