Вы используете незарегистрированную версию компонента "Вкладки"!

Поиск

(Free Jazz, Hat Hut Records) Anthony Braxton - Compositions No. 10 & No. 16 (+101) - 1998, FLAC (tracks+.cue), lossless

(Free Jazz, Hat Hut Records) Anthony Braxton - Compositions No. 10 & No. 16 (+101) - 1998, FLAC (tracks+.cue), lossless
Треклист:
Anthony Braxton / Compositions No. 10 & No. 16 (+101)
Жанр: Free Jazz, Hat Hut Records
Страна-производитель диска: Switzerland
Год издания: 1998
Издатель (лейбл): Hat Hut Records
Номер по каталогу: hat[now]ART 108
Аудиокодек: FLAC (*.flac)
Тип рипа: tracks+.cue
Битрейт аудио: lossless
Продолжительность: 1:07:41
Источник (релизер): Max Monteiro
Наличие сканов в содержимом раздачи: да
Треклист:
1. Composition No. 10/1 (Anthony Braxton ; arranged for quintet by Art Lange) 11:47
2. Composition No. 16 (+101) (Anthony Braxton ; arranged for quintet and conducted by Art Lange) 17:10
3. Composition No. 10/2 (Anthony Braxton ; arranged for quintet by Art Lange) 38:44
Recorded at Air Wave Studios, Chicago on February 24, 1997.
Guillermo Gregorio – Alto Saxophone (1-2), Clarinet (3)
Carrie Biolo – Vibraphone and Percussion
Michael Cameron – Acoustic Bass
Gene Coleman – Bass Clarinet
Jim O’Rourke – Accordion (1), Hurdy-Gurdy (2) and Electronics (3)
 
Лог создания рипа
Exact Audio Copy V1.0 beta 3 from 29. August 2011
EAC extraction logfile from 21. June 2013, 11:28
Anthony Braxton / Compositions No. 10 & No. 16 (+101)
Used drive : SlimtypeeNAU508 5 Adapter: 1 ID: 0
Read mode : Secure
Utilize accurate stream : Yes
Defeat audio cache : Yes
Make use of C2 pointers : No
Read offset correction : 6
Overread into Lead-In and Lead-Out : No
Fill up missing offset samples with silence : Yes
Delete leading and trailing silent blocks : No
Null samples used in CRC calculations : Yes
Used interface : Native Win32 interface for Win NT & 2000
Gap handling : Appended to previous track
Used output format : User Defined Encoder
Selected bitrate : 768 kBit/s
Quality : High
Add ID3 tag : No
Command line compressor : C:\Program Files (x86)\Exact Audio Copy\Flac\flac.exe
Additional command line options : -8 -V -T "ARTIST=%artist%" -T "TITLE=%title%" -T "ALBUM=%albumtitle%" -T "DATE=%year%" -T "TRACKNUMBER=%tracknr%" -T "GENRE=%genre%" -T "PERFORMER=%albuminterpret%" -T "COMPOSER=%composer%" %haslyrics%--tag-from-file=LYRICS="%lyricsfile%"%haslyrics% -T "ALBUMARTIST=%albumartist%" -T "DISCNUMBER=%cdnumber%" -T "TOTALDISCS=%totalcds%" -T "TOTALTRACKS=%numtracks%" -T "COMMENT=%comment%" %source% -o %dest%
TOC of the extracted CD
Track | Start | Length | Start sector | End sector
---------------------------------------------------------
1 | 0:00.00 | 11:46.62 | 0 | 53011
2 | 11:46.62 | 17:10.00 | 53012 | 130261
3 | 28:56.62 | 38:44.13 | 130262 | 304574
Track 1
Filename C:\EAC rips\01 - Composition No. 10-1.wav
Pre-gap length 0:00:02.00
Peak level 92.6 %
Extraction speed 2.5 X
Track quality 99.9 %
Test CRC 2327A3FA
Copy CRC 2327A3FA
Accurately ripped (confidence 1) [F0A3B294] (AR v1)
Copy OK
Track 2
Filename C:\EAC rips\02 - Composition No. 16 (+101).wav
Pre-gap length 0:00:07.62
Peak level 92.3 %
Extraction speed 3.5 X
Track quality 100.0 %
Test CRC 19556060
Copy CRC 19556060
Accurately ripped (confidence 1) [BEA5F24E] (AR v1)
Copy OK
Track 3
Filename C:\EAC rips\03 - Composition No. 10-2.wav
Pre-gap length 0:00:07.62
Peak level 92.7 %
Extraction speed 3.8 X
Track quality 100.0 %
Test CRC E570CC2F
Copy CRC E570CC2F
Cannot be verified as accurate (confidence 1) [F99741D8], AccurateRip returned [9DE7607F] (AR v2)
Copy OK
2 track(s) accurately ripped
1 track(s) could not be verified as accurate
Some tracks could not be verified as accurate
No errors occurred
End of status report
---- CUETools DB Plugin V2.1.4
[CTDB TOCID: 3biYacQgmxG5j.b1nTjPl5oJhkY-] disk not present in database
Submit result: 3biYacQgmxG5j.b1nTjPl5oJhkY- has been uploaded
==== Log checksum 230FCEE0BB56BB194418DE0EF7EC2D87943EFDF20A672AF29922159F9585190D ====
 
Содержание индексной карты (.CUE)
REM GENRE Jazz
REM DATE 1998
REM DISCID 240FDD03
REM COMMENT "ExactAudioCopy v1.0b3"
PERFORMER "Anthony Braxton"
TITLE "Compositions No. 10 & No. 16 (+101)"
FILE "01 - Composition No. 10-1.wav" WAVE
TRACK 01 AUDIO
TITLE "Composition No. 10/1"
PERFORMER "Anthony Braxton"
INDEX 01 00:00:00
TRACK 02 AUDIO
TITLE "Composition No. 16 (+101)"
PERFORMER "Anthony Braxton"
INDEX 00 11:39:00
FILE "02 - Composition No. 16 (+101).wav" WAVE
INDEX 01 00:00:00
TRACK 03 AUDIO
TITLE "Composition No. 10/2"
PERFORMER "Anthony Braxton"
INDEX 00 17:02:13
FILE "03 - Composition No. 10-2.wav" WAVE
INDEX 01 00:00:00
Any questions -> support@pro-jazz.com. По всем вопросам пишите -> support@pro-jazz.com
15:18
232
Нет комментариев. Ваш будет первым!