Вы используете незарегистрированную версию компонента "Вкладки"!

Поиск

(Free Jazz, Hard Bop, Post-Bop) [CD] VA - The New Wave in Jazz {John Coltrane, Archie Shepp, Charles Tolliver, Grachan Moncur III} - 1965, FLAC (tracks+.cue), lossless

(Free Jazz, Hard Bop, Post-Bop) [CD] VA - The New Wave in Jazz {John Coltrane, Archie Shepp, Charles Tolliver, Grachan Moncur III} - 1965, FLAC (tracks+.cue), lossless
Треклист:
VA - The New Wave in Jazz
Жанр: Free Jazz, Hard Bop, Post-Bop
Носитель: CD
Год издания: 1994
Издатель (лейбл): Impulse!
Аудиокодек: FLAC (*.flac)
Тип рипа: tracks+.cue
Битрейт аудио: lossless
Продолжительность: 73:46
Источник (релизер): managerharry (what)
Наличие сканов в содержимом раздачи: нет
Треклист:
01. Nature Boy (Ahbez) - 8:00
John Coltrane - tenor saxophone; McCoy Tyner - piano; Jimmy Garrison - bass; Elvin Jones - drums
02. Hambone (Shepp) - 11:50
Virgil Jones - trumpet; Astley Fennell - trombone; Marion Brown - alto saxophone; Archie Shepp - tenor saxophone; Fred Pirtle - baritone saxophone; Reggie Johnson - bass; Roger Blank - drums
03. Brilliant Corners (Monk) - 9:53
04. Plight (Tolliver) - 13:08
Charles Tolliver - trumpet; James Spaulding - alto saxophone; Bobby Hutcherson - vibraphone; Cecil McBee - bass; Billy Higgins - drums
05. Blue Free (Moncur) - 6:50
06. The Intellect (Moncur) - 24:05
Grachan Moncur III - trombone; Bobby Hutcherson - vibraphone; Cecil McBee - bass; Bill Harris - drums
Recorded live at the Village Gate, New York on March 28, 1965.
 
Лог создания рипа
Exact Audio Copy V1.0 beta 2 from 29. April 2011
EAC extraction logfile from 28. July 2011, 15:46
John Coltrane and others / The New Wave in Jazz
Used drive : HL-DT-STDVDRAM GH22NS40 Adapter: 0 ID: 0
Read mode : Secure
Utilize accurate stream : Yes
Defeat audio cache : Yes
Make use of C2 pointers : No
Read offset correction : 667
Overread into Lead-In and Lead-Out : No
Fill up missing offset samples with silence : Yes
Delete leading and trailing silent blocks : No
Null samples used in CRC calculations : Yes
Used interface : Native Win32 interface for Win NT & 2000
Gap handling : Appended to previous track
Used output format : User Defined Encoder
Selected bitrate : 1024 kBit/s
Quality : High
Add ID3 tag : No
Command line compressor : C:\Program Files (x86)\Exact Audio Copy\FLAC\FLAC.EXE
Additional command line options : -8 -V -T "ARTIST=%artist%" -T "TITLE=%title%" -T "ALBUM=%albumtitle%" -T "DATE=%year%" -T "TRACKNUMBER=%tracknr%" -T "GENRE=%genre%" -T "PERFORMER=%albuminterpret%" -T "COMPOSER=%composer%" %haslyrics%--tag-from-file=LYRICS
TOC of the extracted CD
Track | Start | Length | Start sector | End sector
---------------------------------------------------------
1 | 0:00.00 | 8:00.00 | 0 | 35999
2 | 8:00.00 | 11:50.25 | 36000 | 89274
3 | 19:50.25 | 9:53.00 | 89275 | 133749
4 | 29:43.25 | 13:08.10 | 133750 | 192859
5 | 42:51.35 | 6:50.12 | 192860 | 223621
6 | 49:41.47 | 24:04.65 | 223622 | 331986
Track 1
Filename C:\EAC Rips\01 - Nature Boy (John Coltrane).wav
Pre-gap length 0:00:02.00
Peak level 99.9 %
Extraction speed 1.3 X
Track quality 100.0 %
Test CRC D11A0144
Copy CRC D11A0144
Accurately ripped (confidence 1) [0CD451B2] (AR v1)
Copy OK
Track 2
Filename C:\EAC Rips\02 - Hambone (Archie Shepp).wav
Pre-gap length 0:00:01.25
Peak level 100.0 %
Extraction speed 1.7 X
Track quality 100.0 %
Test CRC 986DAF8F
Copy CRC 986DAF8F
Accurately ripped (confidence 1) [612FD809] (AR v1)
Copy OK
Track 3
Filename C:\EAC Rips\03 - Brilliant Corners (Charles Tolliver).wav
Pre-gap length 0:00:01.05
Peak level 92.6 %
Extraction speed 1.9 X
Track quality 100.0 %
Test CRC 8924D8AA
Copy CRC 8924D8AA
Accurately ripped (confidence 1) [926C2D75] (AR v1)
Copy OK
Track 4
Filename C:\EAC Rips\04 - Plight (Charles Tolliver).wav
Pre-gap length 0:00:00.65
Peak level 100.0 %
Extraction speed 2.1 X
Track quality 99.9 %
Test CRC D8D22374
Copy CRC D8D22374
Accurately ripped (confidence 1) [16E46909] (AR v1)
Copy OK
Track 5
Filename C:\EAC Rips\05 - Blue Free (Graham Moncur III).wav
Pre-gap length 0:00:00.55
Peak level 97.7 %
Extraction speed 2.3 X
Track quality 100.0 %
Test CRC 8FAB4ED0
Copy CRC 8FAB4ED0
Accurately ripped (confidence 1) [FD865468] (AR v1)
Copy OK
Track 6
Filename C:\EAC Rips\06 - The Intellect (Graham Moncor III).wav
Pre-gap length 0:00:01.27
Peak level 100.0 %
Extraction speed 2.7 X
Track quality 99.9 %
Test CRC 6B6BD99A
Copy CRC 6B6BD99A
Accurately ripped (confidence 1) [0C07560D] (AR v1)
Copy OK
All tracks accurately ripped
No errors occurred
End of status report
---- CUETools DB Plugin V2.1.2
[CTDB TOCID: Zo3fcWilcEgYW_GrO0J3l0aDkbA-] disk not present in database, Submit result: Zo3fcWilcEgYW_GrO0J3l0aDkbA- has been uploaded
==== Log checksum B509B475AF9A7CCA4E627650E282B5358E7B13A1DC08BDC560307F3FA0B28CF6 ====
 
Содержание индексной карты (.CUE)
REM GENRE Jazz
REM DATE 1965
REM DISCID 59114A06
REM COMMENT "ExactAudioCopy v1.0b2"
PERFORMER "Various"
TITLE "The New Wave in Jazz"
FILE "01 - John Coltrane - Nature Boy.wav" WAVE
TRACK 01 AUDIO
TITLE "Nature Boy"
PERFORMER "John Coltrane"
INDEX 01 00:00:00
TRACK 02 AUDIO
TITLE "Hambone"
PERFORMER "Archie Shepp"
INDEX 00 07:58:50
FILE "02 - Archie Shepp - Hambone.wav" WAVE
INDEX 01 00:00:00
TRACK 03 AUDIO
TITLE "Brilliant Corners"
PERFORMER "Charles Tolliver"
INDEX 00 11:49:20
FILE "03 - Charles Tolliver - Brilliant Corners.wav" WAVE
INDEX 01 00:00:00
TRACK 04 AUDIO
TITLE "Plight"
PERFORMER "Charles Tolliver"
INDEX 00 09:52:10
FILE "04 - 04 - Charles Tolliver - Plight.wav" WAVE
INDEX 01 00:00:00
TRACK 05 AUDIO
TITLE "Blue Free"
PERFORMER "Grachan Moncur III"
INDEX 00 13:07:30
FILE "05 - Grachan Moncur III - Blue Free.wav" WAVE
INDEX 01 00:00:00
TRACK 06 AUDIO
TITLE "The Intellect"
PERFORMER "Grachan Moncur III"
INDEX 00 06:48:60
FILE "06 - Grachan Moncur III - The Intellect.wav" WAVE
INDEX 01 00:00:00
 
Отчет CUETools
[CUETools log; Date: 17.11.2014 20:29:23; Version: 2.1.5]
[CTDB TOCID: Zo3fcWilcEgYW_GrO0J3l0aDkbA-] found.
Track | CTDB Status
1 | (3/3) Accurately ripped
2 | (3/3) Accurately ripped
3 | (3/3) Accurately ripped
4 | (3/3) Accurately ripped
5 | (3/3) Accurately ripped
6 | (3/3) Accurately ripped
[AccurateRip ID: 000f5f86-0053feff-59114a06] found.
Track [ CRC | V2 ] Status
01 [0cd451b2|8c9731af] (0+5/5) Accurately ripped
02 [612fd809|601d10d7] (0+5/5) Accurately ripped
03 [926c2d75|7a18370c] (0+5/5) Accurately ripped
04 [16e46909|c9b49a2c] (0+5/5) Accurately ripped
05 [fd865468|aced3cad] (0+5/5) Accurately ripped
06 [0c07560d|c51e04ac] (0+5/5) Accurately ripped
Track Peak [ CRC32 ] [W/O NULL] [ LOG ]
-- 100,0 [B19992B2] [86EBBA26]
01 99,9 [D11A0144] [5EF81F41] CRC32
02 100,0 [986DAF8F] [CBE3C1C2] CRC32
03 92,6 [8924D8AA] [6AD8C0EF] CRC32
04 100,0 [D8D22374] [75E2AF13] CRC32
05 97,7 [8FAB4ED0] [9D8D0762] CRC32
06 100,0 [6B6BD99A] [DF65ABD4] CRC32
 
Review by Ron Wynn
The free or avant-garde jazz era was at its creative peak in 1965. This six-track anthology contains intriguing performances from primary and secondary artists, blending remastered versions of original numbers with two cuts first issued on the LP The New Breed. The John Coltrane Quartet's "Nature Boy" shows Coltrane at the edge on tenor. Tenor saxophonist Archie Shepp was presented in volcanic, explosive fashion on "Hambone." Trumpeter Charles Tolliver led an unorthodox lineup on "Brilliant Corners" and "Plight"; Bobby Hutcherson's intricate lines and deft solos alleviated the absence of a keyboard. Trombonist Grachan Moncur III, among the era's finest soloists, fronts a quartet on the final two pieces. As the sole horn, Moncur sustains rhythmic and harmonic tension and sets the stage for Bobby Hutcherson's equally energetic, dynamic solos.
По всем вопросам пишите личное сообщение пользователю M0p94ok.
06:11
226
Нет комментариев. Ваш будет первым!