Вы используете незарегистрированную версию компонента "Вкладки"!

Поиск

(Free Improvisation) [CD] Motoharu Yoshizawa - From the Faraway Nearby - 1992, FLAC (tracks+.cue), lossless

(Free Improvisation) [CD] Motoharu Yoshizawa - From the Faraway Nearby - 1992, FLAC (tracks+.cue), lossless
Треклист:

Жанр: Free Improvisation
Носитель: CD
Страна-производитель диска: Japan
Год издания: 1992
Издатель (лейбл): PSF
Номер по каталогу: PSFD-21
Страна исполнителя (группы): Japan
Аудиокодек: FLAC (*.flac)
Тип рипа: tracks+.cue
Битрейт аудио: lossless
Продолжительность: 00:53:17
Источник (релизер): what.cd (halbla)
Наличие сканов в содержимом раздачи: нет
Треклист:
1. Part 1
2. Part 2
3. Part 3
4. Part 4
5. Part 5
6. Part 6
7. Part 7
Motoharu Yoshizawa, bass [homemade 5 strings bass "Tiritack"]
 
XLD log
X Lossless Decoder version 20121013 (142.0)
XLD extraction logfile from 2012-10-23 21:18:01 +1100
Motoharu Yoshizawa / From the Faraway Nearby
Used drive : HL-DT-ST DVDRW GSA-S10N (revision BP08)
Ripper mode : XLD Secure Ripper
Disable audio cache : OK for the drive with a cache less than 1375KiB
Make use of C2 pointers : NO
Read offset correction : 667
Max retry count : 100
Gap status : Analyzed, Appended
TOC of the extracted CD
Track | Start | Length | Start sector | End sector
---------------------------------------------------------
1 | 00:00:00 | 10:07:00 | 0 | 45524
2 | 10:07:00 | 05:52:27 | 45525 | 71951
3 | 15:59:27 | 13:25:60 | 71952 | 132386
4 | 29:25:12 | 05:58:38 | 132387 | 159274
5 | 35:23:50 | 07:23:12 | 159275 | 192511
6 | 42:46:62 | 02:26:73 | 192512 | 203534
7 | 45:13:60 | 08:17:15 | 203535 | 240824
AccurateRip Summary (DiscID: 000ff5fb-005dad6f-640c8b07)
Track 01 : OK (v1, confidence 2/2)
Track 02 : OK (v1, confidence 2/2)
Track 03 : OK (v1, confidence 2/2)
Track 04 : OK (v1, confidence 2/2)
Track 05 : OK (v1, confidence 2/2)
Track 06 : OK (v1, confidence 2/2)
Track 07 : OK (v1, confidence 2/2)
->All tracks accurately ripped.
All Tracks
Album gain : 2.98 dB
Peak : 1.000000
Statistics
Read error : 0
Jitter error (maybe fixed) : 0
Retry sector count : 0
Damaged sector count : 0
Track 01
Filename : /Users/Blair/Music/Motoharu Yoshizawa - From the Faraway Nearby (1991) [FLAC]/01 Part 1.flac
Pre-gap length : 00:02:00
Track gain : 1.41 dB
Peak : 1.000000
CRC32 hash (test run) : F2383D3E
CRC32 hash : F2383D3E
CRC32 hash (skip zero) : 4F6DA4CA
AccurateRip v1 signature : B82C1530
AccurateRip v2 signature : DE6D2FCB
->Accurately ripped (v1, confidence 2/2)
Statistics
Read error : 0
Jitter error (maybe fixed) : 0
Retry sector count : 0
Damaged sector count : 0
Track 02
Filename : /Users/Blair/Music/Motoharu Yoshizawa - From the Faraway Nearby (1991) [FLAC]/02 Part 2.flac
Track gain : 2.45 dB
Peak : 1.000000
CRC32 hash (test run) : 761CD9E7
CRC32 hash : 761CD9E7
CRC32 hash (skip zero) : 4274B50B
AccurateRip v1 signature : 30FA08C8
AccurateRip v2 signature : 45A1921F
->Accurately ripped (v1, confidence 2/2)
Statistics
Read error : 0
Jitter error (maybe fixed) : 0
Retry sector count : 0
Damaged sector count : 0
Track 03
Filename : /Users/Blair/Music/Motoharu Yoshizawa - From the Faraway Nearby (1991) [FLAC]/03 Part 3.flac
Pre-gap length : 00:03:00
Track gain : 5.04 dB
Peak : 1.000000
CRC32 hash (test run) : 85E5C911
CRC32 hash : 85E5C911
CRC32 hash (skip zero) : B1983352
AccurateRip v1 signature : 0787097A
AccurateRip v2 signature : 5CC4CC73
->Accurately ripped (v1, confidence 2/2)
Statistics
Read error : 0
Jitter error (maybe fixed) : 0
Retry sector count : 0
Damaged sector count : 0
Track 04
Filename : /Users/Blair/Music/Motoharu Yoshizawa - From the Faraway Nearby (1991) [FLAC]/04 Part 4.flac
Pre-gap length : 00:04:00
Track gain : 5.03 dB
Peak : 0.641998
CRC32 hash (test run) : 0D356844
CRC32 hash : 0D356844
CRC32 hash (skip zero) : 86DDC075
AccurateRip v1 signature : D0370621
AccurateRip v2 signature : E1983B0E
->Accurately ripped (v1, confidence 2/2)
Statistics
Read error : 0
Jitter error (maybe fixed) : 0
Retry sector count : 0
Damaged sector count : 0
Track 05
Filename : /Users/Blair/Music/Motoharu Yoshizawa - From the Faraway Nearby (1991) [FLAC]/05 Part 5.flac
Pre-gap length : 00:04:00
Track gain : 8.57 dB
Peak : 0.904572
CRC32 hash (test run) : ADA25ADD
CRC32 hash : ADA25ADD
CRC32 hash (skip zero) : 5C067D42
AccurateRip v1 signature : 04D7E4BA
AccurateRip v2 signature : EF7DCC7F
->Accurately ripped (v1, confidence 2/2)
Statistics
Read error : 0
Jitter error (maybe fixed) : 0
Retry sector count : 0
Damaged sector count : 0
Track 06
Filename : /Users/Blair/Music/Motoharu Yoshizawa - From the Faraway Nearby (1991) [FLAC]/06 Part 6.flac
Track gain : 0.20 dB
Peak : 1.000000
CRC32 hash (test run) : 2D016A2C
CRC32 hash : 2D016A2C
CRC32 hash (skip zero) : D389640C
AccurateRip v1 signature : 19CB1D69
AccurateRip v2 signature : 160908FF
->Accurately ripped (v1, confidence 2/2)
Statistics
Read error : 0
Jitter error (maybe fixed) : 0
Retry sector count : 0
Damaged sector count : 0
Track 07
Filename : /Users/Blair/Music/Motoharu Yoshizawa - From the Faraway Nearby (1991) [FLAC]/07 Part 7.flac
Pre-gap length : 00:02:00
Track gain : 3.31 dB
Peak : 0.648682
CRC32 hash (test run) : 5702A5EA
CRC32 hash : 5702A5EA
CRC32 hash (skip zero) : CA79DA94
AccurateRip v1 signature : CF0285E4
AccurateRip v2 signature : C60A62C5
->Accurately ripped (v1, confidence 2/2)
Statistics
Read error : 0
Jitter error (maybe fixed) : 0
Retry sector count : 0
Damaged sector count : 0
No errors occurred
End of status report
 
.cue
TITLE "From the Faraway Nearby"
PERFORMER "Motoharu Yoshizawa"
REM DATE "1991"
REM DISCID 640C8B07
REM REPLAYGAIN_ALBUM_GAIN 2.98 dB
REM REPLAYGAIN_ALBUM_PEAK 1.000000
FILE "01 Part 1.flac" WAVE
TRACK 01 AUDIO
TITLE "Part 1"
REM REPLAYGAIN_TRACK_GAIN 1.41 dB
REM REPLAYGAIN_TRACK_PEAK 1.000000
INDEX 01 00:00:00
FILE "02 Part 2.flac" WAVE
TRACK 02 AUDIO
TITLE "Part 2"
REM REPLAYGAIN_TRACK_GAIN 2.45 dB
REM REPLAYGAIN_TRACK_PEAK 1.000000
INDEX 01 00:00:00
TRACK 03 AUDIO
TITLE "Part 3"
REM REPLAYGAIN_TRACK_GAIN 5.04 dB
REM REPLAYGAIN_TRACK_PEAK 1.000000
INDEX 00 05:49:27
FILE "03 Part 3.flac" WAVE
INDEX 01 00:00:00
TRACK 04 AUDIO
TITLE "Part 4"
REM REPLAYGAIN_TRACK_GAIN 5.03 dB
REM REPLAYGAIN_TRACK_PEAK 0.641998
INDEX 00 13:21:60
FILE "04 Part 4.flac" WAVE
INDEX 01 00:00:00
TRACK 05 AUDIO
TITLE "Part 5"
REM REPLAYGAIN_TRACK_GAIN 8.57 dB
REM REPLAYGAIN_TRACK_PEAK 0.904572
INDEX 00 05:54:38
FILE "05 Part 5.flac" WAVE
INDEX 01 00:00:00
FILE "06 Part 6.flac" WAVE
TRACK 06 AUDIO
TITLE "Part 6"
REM REPLAYGAIN_TRACK_GAIN 0.20 dB
REM REPLAYGAIN_TRACK_PEAK 1.000000
INDEX 01 00:00:00
TRACK 07 AUDIO
TITLE "Part 7"
REM REPLAYGAIN_TRACK_GAIN 3.31 dB
REM REPLAYGAIN_TRACK_PEAK 0.648682
INDEX 00 02:24:73
FILE "07 Part 7.flac" WAVE
INDEX 01 00:00:00
 
auCDtect
-----------------------
DON'T MODIFY THIS FILE
-----------------------
PERFORMER: auCDtect Task Manager, ver. 1.6.0 RC1 build 1.6.0.1
Copyright (c) 2008-2010 y-soft. All rights reserved
http://y-soft.org
ANALYZER: auCDtect: CD records authenticity detector, version 0.8.2
Copyright (c) 2004 Oleg Berngardt. All rights reserved.
Copyright (c) 2004 Alexander Djourik. All rights reserved.
FILE: 07 Part 7.flac
Size: 29567531 Hash: A571B9A3A850A2A1B395C47739DB585F Accuracy: -m0
Conclusion: CDDA 100%
Signature: 0CA42545E746F6079E60EE3AE83C075F3F069B5B
FILE: 06 Part 6.flac
Size: 10960055 Hash: 6384418DEB8D966EF2A693C8F6FD4D6A Accuracy: -m0
Conclusion: CDDA 99%
Signature: 16C117C862709FE9DCF4373718C7A1E8125D195B
FILE: 05 Part 5.flac
Size: 20623683 Hash: 45F379D0B27D0ECB923642140C78AA33 Accuracy: -m0
Conclusion: CDDA 100%
Signature: 3FA9A9195A10F6362F1C150D89EB740C38992D80
FILE: 04 Part 4.flac
Size: 25891556 Hash: 8044EF226819446D6EF8903FCA6F4C01 Accuracy: -m0
Conclusion: CDDA 100%
Signature: E6B45BBB48CDC4AD820F2641699674C87C5B3546
FILE: 03 Part 3.flac
Size: 51690674 Hash: 9465CF1D46E1E420F7DF79241F18292C Accuracy: -m0
Conclusion: CDDA 100%
Signature: A93ED49312656ECC5F17C33171085CC2978BEFD5
FILE: 02 Part 2.flac
Size: 22736855 Hash: F933AE4B303F06B38E5CBFDB5D725979 Accuracy: -m0
Conclusion: CDDA 99%
Signature: CAB924F131360CC714F1EF500FB514BDEB73F345
FILE: 01 Part 1.flac
Size: 40936568 Hash: 9A06D2F6AE4004A3074A76EEF3C92792 Accuracy: -m0
Conclusion: CDDA 100%
Signature: 19E430E57100DAD5A6566B585A3470C57787E569
По всем вопросам пишите личное сообщение пользователю M0p94ok.
06:10
167
Нет комментариев. Ваш будет первым!