Вы используете незарегистрированную версию компонента "Вкладки"!

Поиск

(Free Jazz, Hard Bop, Contemporary Jazz) [CD] Young Jazz Giants (Cameron Graves, Stephen Bruner, Kamasi Washington, Ronald Bruner) - Young Jazz Giants - 2004, FLAC (tracks+.cue), lossless

(Free Jazz, Hard Bop, Contemporary Jazz) [CD] Young Jazz Giants (Cameron Graves, Stephen Bruner, Kamasi Washington, Ronald Bruner) - Young Jazz Giants - 2004, FLAC (tracks+.cue), lossless
Треклист:
Young Jazz Giants - Young Jazz Giants
Жанр: Free Jazz, Hard Bop, Contemporary Jazz
Носитель: CD
Страна-производитель диска (релиза): США
Год издания: 2004
Издатель (лейбл): Birdman Records
Номер по каталогу: BMR054
Аудиокодек: FLAC (*.flac)
Тип рипа: tracks+.cue
Битрейт аудио: lossless
Продолжительность: 57:04
Источник (релизер): wiggles (what)
Наличие сканов в содержимом раздачи: нет
Треклист:
01. Yenne (Graves) - 3:51
02. Family (Washington) - 7:43
03. Tears of Sorrow & Rage (Washington) - 9:41
04. Song for Billy (Washington) - 6:01
05. Spider Walk (Graves) - 6:31
06. Stephen's Song (Bruner) - 6:08
07. YJG (Washington) - 4:23
08. Giant Steps (Coltrane) - 12:46
 
Лог создания рипа
X Lossless Decoder version 20100828 (120.6)
XLD extraction logfile from 2010-09-11 17:59:31 -0700
Young Jazz Giants / Young Jazz Giants
Used drive : OPTIARC DVD RW AD-5680H (revision 3AHB)
Use cdparanoia mode : YES (CDParanoia III 10.2 engine)
Disable audio cache : OK for the drive with cache less than 2750KB
Make use of C2 pointers : NO
Read offset correction : 48
Max retry count : 100
Gap status : Analyzed, Appended (except HTOA)
TOC of the extracted CD
Track | Start | Length | Start sector | End sector
---------------------------------------------------------
1 | 00:00:00 | 03:50:52 | 0 | 17301
2 | 03:50:52 | 07:43:03 | 17302 | 52029
3 | 11:33:55 | 09:41:36 | 52030 | 95640
4 | 21:15:16 | 06:00:51 | 95641 | 122691
5 | 27:15:67 | 06:30:48 | 122692 | 151989
6 | 33:46:40 | 06:08:08 | 151990 | 179597
7 | 39:54:48 | 04:23:19 | 179598 | 199341
8 | 44:17:67 | 12:45:47 | 199342 | 256763
All Tracks
Album gain : -6.83 dB
Peak : 1.000000
Track 01
Filename : /Users/Erebus/Flac Rips/Young Jazz Giants/01 - Yenne.flac
Pre-gap length : 00:02:00
Track gain : -7.41 dB
Peak : 1.000000
CRC32 hash (test run) : 5A666D57
CRC32 hash : 5A666D57
CRC32 hash (skip zero) : E5930D21
AccurateRip signature : 6DE0F5E4
->Track not present in AccurateRip database.
Statistics
Read error : 0
Skipped (treated as error) : 0
Edge jitter error (maybe fixed) : 0
Atom jitter error (maybe fixed) : 0
Drift error (maybe fixed) : 0
Dropped bytes error (maybe fixed) : 0
Duplicated bytes error (maybe fixed) : 0
Inconsistency in error sectors : 0
Track 02
Filename : /Users/Erebus/Flac Rips/Young Jazz Giants/02 - Family.flac
Track gain : -6.70 dB
Peak : 1.000000
CRC32 hash (test run) : A2E54E18
CRC32 hash : A2E54E18
CRC32 hash (skip zero) : 148D9E1F
AccurateRip signature : D932E35F
->Track not present in AccurateRip database.
Statistics
Read error : 0
Skipped (treated as error) : 0
Edge jitter error (maybe fixed) : 0
Atom jitter error (maybe fixed) : 0
Drift error (maybe fixed) : 0
Dropped bytes error (maybe fixed) : 0
Duplicated bytes error (maybe fixed) : 0
Inconsistency in error sectors : 0
Track 03
Filename : /Users/Erebus/Flac Rips/Young Jazz Giants/03 - Tears of Sorrow & Rage.flac
Track gain : -7.02 dB
Peak : 1.000000
CRC32 hash (test run) : 6F538D62
CRC32 hash : 6F538D62
CRC32 hash (skip zero) : D1ED5057
AccurateRip signature : 10DCA228
->Track not present in AccurateRip database.
Statistics
Read error : 0
Skipped (treated as error) : 0
Edge jitter error (maybe fixed) : 0
Atom jitter error (maybe fixed) : 0
Drift error (maybe fixed) : 0
Dropped bytes error (maybe fixed) : 0
Duplicated bytes error (maybe fixed) : 0
Inconsistency in error sectors : 0
Track 04
Filename : /Users/Erebus/Flac Rips/Young Jazz Giants/04 - Song For Billy.flac
Track gain : -2.77 dB
Peak : 0.996002
CRC32 hash (test run) : 9E2B48FF
CRC32 hash : 9E2B48FF
CRC32 hash (skip zero) : D490B636
AccurateRip signature : 43221269
->Track not present in AccurateRip database.
Statistics
Read error : 0
Skipped (treated as error) : 0
Edge jitter error (maybe fixed) : 0
Atom jitter error (maybe fixed) : 0
Drift error (maybe fixed) : 0
Dropped bytes error (maybe fixed) : 0
Duplicated bytes error (maybe fixed) : 0
Inconsistency in error sectors : 0
Track 05
Filename : /Users/Erebus/Flac Rips/Young Jazz Giants/05 - Spider Walk.flac
Track gain : -7.42 dB
Peak : 1.000000
CRC32 hash (test run) : 6AE4D102
CRC32 hash : 6AE4D102
CRC32 hash (skip zero) : F02C69DE
AccurateRip signature : F5C6F6ED
->Track not present in AccurateRip database.
Statistics
Read error : 0
Skipped (treated as error) : 0
Edge jitter error (maybe fixed) : 0
Atom jitter error (maybe fixed) : 0
Drift error (maybe fixed) : 0
Dropped bytes error (maybe fixed) : 0
Duplicated bytes error (maybe fixed) : 0
Inconsistency in error sectors : 0
Track 06
Filename : /Users/Erebus/Flac Rips/Young Jazz Giants/06 - Stephen's Song.flac
Track gain : -7.29 dB
Peak : 1.000000
CRC32 hash (test run) : 157509AA
CRC32 hash : 157509AA
CRC32 hash (skip zero) : 2F382114
AccurateRip signature : 9CB86856
->Track not present in AccurateRip database.
Statistics
Read error : 0
Skipped (treated as error) : 0
Edge jitter error (maybe fixed) : 0
Atom jitter error (maybe fixed) : 0
Drift error (maybe fixed) : 0
Dropped bytes error (maybe fixed) : 0
Duplicated bytes error (maybe fixed) : 0
Inconsistency in error sectors : 0
Track 07
Filename : /Users/Erebus/Flac Rips/Young Jazz Giants/07 - YJG.flac
Track gain : -7.41 dB
Peak : 1.000000
CRC32 hash (test run) : 3A47CCA1
CRC32 hash : 3A47CCA1
CRC32 hash (skip zero) : B1607FAB
AccurateRip signature : 19B92056
->Track not present in AccurateRip database.
Statistics
Read error : 0
Skipped (treated as error) : 0
Edge jitter error (maybe fixed) : 0
Atom jitter error (maybe fixed) : 0
Drift error (maybe fixed) : 0
Dropped bytes error (maybe fixed) : 0
Duplicated bytes error (maybe fixed) : 0
Inconsistency in error sectors : 0
Track 08
Filename : /Users/Erebus/Flac Rips/Young Jazz Giants/08 - Giant Steps.flac
Track gain : -5.10 dB
Peak : 1.000000
CRC32 hash (test run) : 23AB7411
CRC32 hash : 23AB7411
CRC32 hash (skip zero) : 2CB7B5D2
AccurateRip signature : D5EB1328
->Track not present in AccurateRip database.
Statistics
Read error : 0
Skipped (treated as error) : 0
Edge jitter error (maybe fixed) : 0
Atom jitter error (maybe fixed) : 0
Drift error (maybe fixed) : 0
Dropped bytes error (maybe fixed) : 0
Duplicated bytes error (maybe fixed) : 0
Inconsistency in error sectors : 0
No errors occurred
End of status report
 
Содержание индексной карты (.CUE)
TITLE "Young Jazz Giants"
PERFORMER "Young Jazz Giants"
REM GENRE "Jazz"
REM DATE 2004
REM DISCID 750D5F08
FILE "01 - Yenne.wav" WAVE
TRACK 01 AUDIO
TITLE "Yenne"
INDEX 01 00:00:00
FILE "02 - Family.wav" WAVE
TRACK 02 AUDIO
TITLE "Family"
INDEX 01 00:00:00
FILE "03 - Tears of Sorrow & Rage.wav" WAVE
TRACK 03 AUDIO
TITLE "Tears of Sorrow & Rage"
INDEX 01 00:00:00
FILE "04 - Song for Billy.wav" WAVE
TRACK 04 AUDIO
TITLE "Song for Billy"
INDEX 01 00:00:00
FILE "05 - Spider Walk.wav" WAVE
TRACK 05 AUDIO
TITLE "Spider Walk"
INDEX 01 00:00:00
FILE "06 - Stephen's Song.wav" WAVE
TRACK 06 AUDIO
TITLE "Stephen's Song"
INDEX 01 00:00:00
FILE "07 - YJG.wav" WAVE
TRACK 07 AUDIO
TITLE "YJG"
INDEX 01 00:00:00
FILE "08 - Giant Steps.wav" WAVE
TRACK 08 AUDIO
TITLE "Giant Steps"
INDEX 01 00:00:00
 
AllMusic Review by Thom Jurek
This debut album by the (very) Young Jazz Giants from South Central Los Angeles' Crenshaw District is surprising in a number of ways. The first is the label; Birdman simply doesn't issue jazz records. Secondly, this group was mentored by the late jazz legend Billy Higgins at a World Stage workshop. Lastly are the breadth, depth, and execution of the music itself. Saxophonist Kamasi Washington, pianist Cameron Graves (who was only 16 at the time of this outing), and brothers Stephen and Ronald Bruner on bass and drums, respectively, come off as a seasoned and worldly-wise quartet -- augmented on certain tracks by guests from their neighborhood (meaning that the well is even deeper than it seems here). These "Young Lions" are not merely superchoppers who nuance everything to a scientific perfection like so many of the new generation; they are composers who have studied the intricate harmonic and rhythmic concepts of the music they seek to play. The hard bop of Sonny Rollins, the dynamic spiritualism of Coltrane and Andrew Hill, the sheer tautness of Herbie Hancock's arrangement sensibility, and the dynamic notions of Miles' early modalism all come into play here. But what is contained in this statement that makes it different is the inherent sense of lyricism and adventure they compose with and the level of inspiration in their performance. Check the finger-popping cadences in Washington's "Family," the engaged but never obtrusive blowing on "Tears of Sorrow & Rage," and the unabashed tenderness in the ballad "Song for Billy," where the interplay between Graves and Stephen Bruner is nearly breathtaking. There are two funkier soul-jazz cuts with Rhodes playing by Graves and Stephen Bruner playing electric bass. Far from being a distraction, they fill in the grooves with sophistication, honesty, and a tough funkiness that never leaves the realm of swing. The album closes with a very capable and even inspiring version of "Giant Steps," where the band's sense of taut, on-the-one finesse is showcased, along with their harmonic sophistication outside the head (yet firmly inside the changes) and their extrapolation of rhythmic and harmonic strategies in the solos. What it all comes down to is a raw excitement. And anticipation as to what these artists -- who are already identified with a sound and manner of performance -- will sound like in a few years' time as they develop their composing and arranging skills. Check this out for sure.
 
Состав
Cameron Graves - piano, Fender Rhodes
Stephen Bruner - bass
Kamasi Washington - tenor saxophone, soprano saxophone
Ronald Bruner - drums
Terrace Martain - alto saxophone (#2,6)
Ryan Porter - trombone (#2,6)
Greg G-Mack Dalton - guitar (#6)
Jacques Slade - spoken word (#7)
По всем вопросам пишите личное сообщение пользователю M0p94ok.
18:33
199
Нет комментариев. Ваш будет первым!