Вы используете незарегистрированную версию компонента "Вкладки"!

Поиск

(Free Jazz, Contemporary Jazz) [CD] Billy Bang Quintet - Rainbow Gladiator - 1991, FLAC (tracks+.cue), lossless

(Free Jazz, Contemporary Jazz) [CD] Billy Bang Quintet - Rainbow Gladiator - 1991, FLAC (tracks+.cue), lossless
Треклист:
Billy Bang Quintet / Rainbow Gladiator
Жанр: Free Jazz, Contemporary Jazz
Носитель: CD
Страна-производитель диска (релиза): Italy
Год издания: 1991
Издатель (лейбл): Soul Note
Номер по каталогу: 121016-2
Страна исполнителя (группы): US
Аудиокодек: FLAC (*.flac)
Тип рипа: tracks+.cue
Битрейт аудио: lossless
Продолжительность: 33:48
Источник (релизер): вата
Наличие сканов в содержимом раздачи: да
Треклист:
01. Rainbow Gladiator (Bang) 14:19
02. Ebony Minstrel Man (Bang) 4:16
03. New York After Dark (Bang) 7:20
04. Broken Strings (for Clarence Muse) (Bang) 2:44
05. YAA - Woman Born On Thursday (for Miss Laurel Van Horn) (Bang) 5:09
06. Bang's Bounce (Bang) 3:23
 
Лог создания рипа
Exact Audio Copy V0.99 prebeta 5 from 4. May 2009
EAC extraction logfile from 25. November 2010, 21:21
Billy Bang Quintet / Rainbow Gladiator
Used drive : TSSTcorpCDDVDW SH-S222A Adapter: 1 ID: 0
Read mode : Secure
Utilize accurate stream : Yes
Defeat audio cache : Yes
Make use of C2 pointers : No
Read offset correction : 6
Overread into Lead-In and Lead-Out : No
Fill up missing offset samples with silence : Yes
Delete leading and trailing silent blocks : No
Null samples used in CRC calculations : Yes
Used interface : Native Win32 interface for Win NT & 2000
Gap handling : Appended to previous track
Used output format : User Defined Encoder
Selected bitrate : 768 kBit/s
Quality : High
Add ID3 tag : No
Command line compressor : C:\tool\Audio\Exact Audio Copy\FLAC\FLAC.EXE
Additional command line options : -V -8 -T "ARTIST=%a" -T "TITLE=%t" -T "ALBUM=%g" -T "TRACKNUMBER=%n" -T "GENRE=%m" %s
TOC of the extracted CD
Track | Start | Length | Start sector | End sector
---------------------------------------------------------
1 | 0:00.33 | 14:24.07 | 33 | 64839
2 | 14:24.40 | 4:21.55 | 64840 | 84469
3 | 18:46.20 | 7:23.08 | 84470 | 117702
4 | 26:09.28 | 2:46.52 | 117703 | 130204
5 | 28:56.05 | 5:12.05 | 130205 | 153609
6 | 34:08.10 | 3:26.23 | 153610 | 169082
Track 1
Filename C:\! RUTRACKER\ru up\Billy Bang - Rainbow Gladiator\01 - Rainbow Gladiator.wav
Pre-gap length 0:00:02.33
Peak level 82.5 %
Track quality 100.0 %
Test CRC 96CE349F
Copy CRC 96CE349F
Accurately ripped (confidence 3) [92E958E5]
Copy OK
Track 2
Filename C:\! RUTRACKER\ru up\Billy Bang - Rainbow Gladiator\02 - Ebony Minstrel Man.wav
Peak level 82.5 %
Track quality 100.0 %
Test CRC ADD4DFE8
Copy CRC ADD4DFE8
Accurately ripped (confidence 3) [B9F84F7B]
Copy OK
Track 3
Filename C:\! RUTRACKER\ru up\Billy Bang - Rainbow Gladiator\03 - New York After Dark.wav
Peak level 82.5 %
Track quality 100.0 %
Test CRC 21DE00C3
Copy CRC 21DE00C3
Accurately ripped (confidence 3) [D971FC06]
Copy OK
Track 4
Filename C:\! RUTRACKER\ru up\Billy Bang - Rainbow Gladiator\04 - Broken Strings.wav
Peak level 72.4 %
Track quality 99.9 %
Test CRC 0AA14CCD
Copy CRC 0AA14CCD
Accurately ripped (confidence 3) [A991D921]
Copy OK
Track 5
Filename C:\! RUTRACKER\ru up\Billy Bang - Rainbow Gladiator\05 - YAA - Woman Born On Thursday.wav
Peak level 82.5 %
Track quality 100.0 %
Test CRC 90DED0A8
Copy CRC 90DED0A8
Accurately ripped (confidence 3) [C25F0447]
Copy OK
Track 6
Filename C:\! RUTRACKER\ru up\Billy Bang - Rainbow Gladiator\06 - Bang's Bounce.wav
Peak level 82.5 %
Track quality 100.0 %
Test CRC DB69AEDB
Copy CRC DB69AEDB
Accurately ripped (confidence 3) [B6215ABB]
Copy OK
All tracks accurately ripped
No errors occurred
End of status report
 
Содержание индексной карты (.CUE)
REM GENRE Jazz
REM DATE 1981
REM DISCID 4A08CE06
REM COMMENT "ExactAudioCopy v0.99pb5"
PERFORMER "Billy Bang Quintet"
TITLE "Rainbow Gladiator"
FILE "01 - Rainbow Gladiator.wav" WAVE
TRACK 01 AUDIO
TITLE "Rainbow Gladiator"
PERFORMER "Billy Bang Quintet"
PREGAP 00:00:33
INDEX 01 00:00:00
FILE "02 - Ebony Minstrel Man.wav" WAVE
TRACK 02 AUDIO
TITLE "Ebony Minstrel Man"
PERFORMER "Billy Bang Quintet"
INDEX 01 00:00:00
FILE "03 - New York After Dark.wav" WAVE
TRACK 03 AUDIO
TITLE "New York After Dark"
PERFORMER "Billy Bang Quintet"
INDEX 01 00:00:00
FILE "04 - Broken Strings.wav" WAVE
TRACK 04 AUDIO
TITLE "Broken Strings"
PERFORMER "Billy Bang Quintet"
INDEX 01 00:00:00
FILE "05 - YAA - Woman Born On Thursday.wav" WAVE
TRACK 05 AUDIO
TITLE "YAA - Woman Born On Thursday"
PERFORMER "Billy Bang Quintet"
INDEX 01 00:00:00
FILE "06 - Bang's Bounce.wav" WAVE
TRACK 06 AUDIO
TITLE "Bang's Bounce"
PERFORMER "Billy Bang Quintet"
INDEX 01 00:00:00
 
Об альбоме (сборнике)
Distributed By – IREC Milano
Manufactured By – PhonoComp
Phonographic Copyright (p) – Soul Note
Copyright (c) – Soul Note
Published By – IREC Milano
Recorded At – Barigozzi Studio
Recorded June 10 and 11, 1981 at Barigozzi Studios, Milano, Italy.
 
Состав
Violin, Composed By – Billy Bang
Alto Saxophone, Baritone Saxophone – Charles Tyler
Bass – Wilber Morris
Piano – Michele Rosewoman
Drums – Dennis Charles
Cover [Art] – Pick Up Studios
Engineer [Recording] – Giancarlo Barigozzi
Liner Notes – Lee Jeske
Photography By – Renzo Chiesa
Producer – Giovanni Bonandrini
По всем вопросам пишите личное сообщение пользователю M0p94ok.
18:32
176
Нет комментариев. Ваш будет первым!