Вы используете незарегистрированную версию компонента "Вкладки"!

Поиск

(Free Jazz) Han Bennink and Peter Brotzmann - In Amherst 2006 - 2008, FLAC (tracks+.cue), lossless

Треклист:
Han Bennink and Peter Brötzmann - In Amherst 2006
Жанр: Free Jazz
Год выпуска диска: 2008
Производитель диска: brö/eremite records
Источник: вот.сиди (balth67)
Аудио кодек: FLAC
Тип рипа: tracks+.cue
Битрейт аудио: lossless
Продолжительность: 1:14:59
Трэклист:
1. Every Man Is Me (10:35)
2. I Am His Brother (5:49)
3. No Man Is My Enemy (19:15)
4. I Am Everyman (13:34)
5. And He Is In And Of Me (5:59)
6. This Is My Faith (7:09)
7. My Strength (6:03)
8. My Deepest Hope And My Only Belief* (6:31)
all music by bennink/brötzmann
*quotation from what shall we do without us by kenneth patchen/sierra club books 1984
recorded 09 october, 2006, amherst
Peter Brötzmann: alto & tenor saxophone, b-flat clarinet, tarogato
Han Bennink: drums
 
Отчёт EAC
Exact Audio Copy V0.99 prebeta 4 from 23. January 2008
EAC extraction logfile from 8. July 2008, 20:30
in amherst 2006 / peter brotzmann & han bennink
Used drive : _NEC DVD_RW ND-3500AG Adapter: 2 ID: 0
Read mode : Secure
Utilize accurate stream : Yes
Defeat audio cache : Yes
Make use of C2 pointers : No
Read offset correction : 48
Overread into Lead-In and Lead-Out : No
Fill up missing offset samples with silence : Yes
Delete leading and trailing silent blocks : No
Null samples used in CRC calculations : Yes
Used interface : Native Win32 interface for Win NT & 2000
Gap handling : Appended to previous track
Used output format : Internal WAV Routines
Sample format : 44.100 Hz; 16 Bit; Stereo
TOC of the extracted CD
Track | Start | Length | Start sector | End sector
---------------------------------------------------------
1 | 0:00.00 | 10:35.74 | 0 | 47698
2 | 10:35.74 | 5:49.58 | 47699 | 73931
3 | 16:25.57 | 19:15.20 | 73932 | 160576
4 | 35:41.02 | 13:34.43 | 160577 | 221669
5 | 49:15.45 | 5:59.26 | 221670 | 248620
6 | 55:14.71 | 7:09.14 | 248621 | 280809
7 | 62:24.10 | 6:03.72 | 280810 | 308106
8 | 68:28.07 | 6:31.21 | 308107 | 337452
Track 1
Filename E:\New Rip\peter brotzmann & han bennink - in amherst 2006\01 - every man is me.wav
Pre-gap length 0:00:02.00
Peak level 99.4 %
Track quality 100.0 %
Test CRC F649EB11
Copy CRC F649EB11
Copy OK
Track 2
Filename E:\New Rip\peter brotzmann & han bennink - in amherst 2006\02 - i am his brother.wav
Peak level 99.4 %
Track quality 100.0 %
Test CRC D1EB9769
Copy CRC D1EB9769
Copy OK
Track 3
Filename E:\New Rip\peter brotzmann & han bennink - in amherst 2006\03 - no man is my enemy.wav
Peak level 99.4 %
Track quality 99.9 %
Test CRC C18071DF
Copy CRC C18071DF
Copy OK
Track 4
Filename E:\New Rip\peter brotzmann & han bennink - in amherst 2006\04 - i am everyman.wav
Peak level 99.4 %
Track quality 99.9 %
Test CRC 7E0C7D5D
Copy CRC 7E0C7D5D
Copy OK
Track 5
Filename E:\New Rip\peter brotzmann & han bennink - in amherst 2006\05 - & he is in & of me.wav
Peak level 99.4 %
Track quality 100.0 %
Test CRC C23AA033
Copy CRC C23AA033
Copy OK
Track 6
Filename E:\New Rip\peter brotzmann & han bennink - in amherst 2006\06 - this is my faith.wav
Peak level 99.4 %
Track quality 100.0 %
Test CRC 4072982F
Copy CRC 4072982F
Copy OK
Track 7
Filename E:\New Rip\peter brotzmann & han bennink - in amherst 2006\07 - my strength.wav
Peak level 99.4 %
Track quality 100.0 %
Test CRC 74BE8345
Copy CRC 74BE8345
Copy OK
Track 8
Filename E:\New Rip\peter brotzmann & han bennink - in amherst 2006\08 - my deepest hope & my only belief.wav
Peak level 99.4 %
Track quality 100.0 %
Test CRC DD5ED008
Copy CRC DD5ED008
Copy OK
No errors occurred
End of status report
 
Отчёт Audiocheckera
AUDIOCHECKER v1.2 - by Dester - opdester@freemail.hu
~~~~~~~~~~~~~~~~~
1 -===- H:\Песеньки\Peter Brotzmann & Han Bennink - In Amherst 2006 (2008) [FLAC]\01 - Every Man Is Me.Flac
Extracted successfully
Conclusion: This track looks like CDDA with probability 100%
2 -===- H:\Песеньки\Peter Brotzmann & Han Bennink - In Amherst 2006 (2008) [FLAC]\02 - I Am His Brother.Flac
Extracted successfully
Conclusion: This track looks like CDDA with probability 100%
3 -===- H:\Песеньки\Peter Brotzmann & Han Bennink - In Amherst 2006 (2008) [FLAC]\03 - No Man Is My Enemy.Flac
Extracted successfully
Conclusion: This track looks like CDDA with probability 100%
4 -===- H:\Песеньки\Peter Brotzmann & Han Bennink - In Amherst 2006 (2008) [FLAC]\04 - I Am Everyman.Flac
Extracted successfully
Conclusion: This track looks like CDDA with probability 99%
5 -===- H:\Песеньки\Peter Brotzmann & Han Bennink - In Amherst 2006 (2008) [FLAC]\05 - & He Is In & Of Me.Flac
Extracted successfully
Conclusion: This track looks like CDDA with probability 100%
6 -===- H:\Песеньки\Peter Brotzmann & Han Bennink - In Amherst 2006 (2008) [FLAC]\06 - This Is My Faith.Flac
Extracted successfully
Conclusion: This track looks like CDDA with probability 100%
7 -===- H:\Песеньки\Peter Brotzmann & Han Bennink - In Amherst 2006 (2008) [FLAC]\07 - My Strength.Flac
Extracted successfully
Conclusion: This track looks like CDDA with probability 100%
8 -===- H:\Песеньки\Peter Brotzmann & Han Bennink - In Amherst 2006 (2008) [FLAC]\08 - My Deepest Hope & My Only Belief.Flac
Extracted successfully
Conclusion: This track looks like CDDA with probability 100%
 
cue
REM GENRE Jazz
REM DATE 2008
REM DISCID 72119308
REM COMMENT "ExactAudioCopy v0.99pb4"
PERFORMER "in amherst 2006"
TITLE "peter brцtzmann & han bennink"
FILE "01 - every man is me.wav" WAVE
TRACK 01 AUDIO
TITLE "every man is me"
PERFORMER "in amherst 2006"
FLAGS DCP
INDEX 01 00:00:00
FILE "02 - i am his brother.wav" WAVE
TRACK 02 AUDIO
TITLE "i am his brother"
PERFORMER "in amherst 2006"
FLAGS DCP
INDEX 01 00:00:00
FILE "03 - no man is my enemy.wav" WAVE
TRACK 03 AUDIO
TITLE "no man is my enemy"
PERFORMER "in amherst 2006"
FLAGS DCP
INDEX 01 00:00:00
FILE "04 - i am everyman.wav" WAVE
TRACK 04 AUDIO
TITLE "i am everyman"
PERFORMER "in amherst 2006"
FLAGS DCP
INDEX 01 00:00:00
FILE "05 - & he is in & of me.wav" WAVE
TRACK 05 AUDIO
TITLE "& he is in & of me "
PERFORMER "in amherst 2006"
FLAGS DCP
INDEX 01 00:00:00
FILE "06 - this is my faith.wav" WAVE
TRACK 06 AUDIO
TITLE "this is my faith"
PERFORMER "in amherst 2006"
FLAGS DCP
INDEX 01 00:00:00
FILE "07 - my strength.wav" WAVE
TRACK 07 AUDIO
TITLE "my strength"
PERFORMER "in amherst 2006"
FLAGS DCP
INDEX 01 00:00:00
FILE "08 - my deepest hope & my only belief.wav" WAVE
TRACK 08 AUDIO
TITLE "my deepest hope & my only belief"
PERFORMER "in amherst 2006"
FLAGS DCP
INDEX 01 00:00:00
По всем вопросам пишите личное сообщение пользователю M0p94ok.
19:10
172
Нет комментариев. Ваш будет первым!