Вы используете незарегистрированную версию компонента "Вкладки"!

Поиск

(Avant Garde, Free improvisation) Iskra 1903 (Paul Rutherford, Derek Bailey, Barry Guy) - Chapter One 1970-1972 (3cd) - 2000, FLAC (tracks+.cue), lossless

(Avant Garde, Free improvisation) Iskra 1903 (Paul Rutherford, Derek Bailey, Barry Guy) - Chapter One 1970-1972 (3cd) - 2000, FLAC (tracks+.cue), lossless
Треклист:
Iskra 1903 - Chapter One 1970-1972 (3cd)
Жанр: Avant Garde, Free improvisation
Год выпуска диска: 2000
Производитель диска: EMANEM (4301)
Источник: вот.сиди (Avarance)
Аудио кодек: FLAC
Тип рипа: tracks+.cue
Битрейт аудио: lossless
Продолжительность: 3:14:44
Трэклист:
A1 - IMPROVISATION 1 - 21:03
A2 - IMPROVISATION 2 - 5:37
A3 - IMPROVISATION 3 - 11:36
A4 - IMPROVISATION 4 - 5:04
A5 - IMPROVISATION 0 - 25:20
B1 - OFFCUT 1 - 1:40
B2 - OFFCUT 2 - 4:25
B3 - OFFCUT 3 - 11:17
B4 - IMPROVISATION 5 - 5:54
B5 - IMPROVISATION 6 - 10:48
B6 - IMPROVISATION 7 - 4:29
B7 - IMPROVISATION 8 - 6:21
B8 - IMPROVISATION 9 - 3:39
B9 - IMPROVISATION 10 - 3:09
B10 - IMPROVISATION 11 - 7:34
C1 - EXTRA 1 - 7:47
C2 - EXTRA 2 - 11:31
C3 - EXTRA 3 - 6:42
C4 - ON TOUR 1 - 13:37
C5 - ON TOUR 3 - 12:44
C6 - ON TOUR 2 - 12:34
Iskra 1903:
PAUL RUTHERFORD trombone (on all except A5 & B3) & piano (on A1, A5 & B3 only)
DEREK BAILEY guitar (with amplification)
BARRY GUY double bass (with amplification)
All analogue recordings made in London (except C4-C6)
A1-B3: 1970 September 2 - by Hugh Davies
B4-B10: 1972 May 3 - by Bob Woolford
C1-C3: 1971 August 1 - by Ben Christianson
C4: 1972 October 21 - at Donaueshingen
C5: 1972 November 1 - at Berlin
C6: 1972 October 23 or 24 - at Bremen
A1-A4, B4-B10 originally issued in 1972 as Incus double LP 3/4
A5-B3, C1-C6 previously unissued
 
Лог создания рипа
 
A
Exact Audio Copy V0.99 prebeta 5 from 4. May 2009
EAC extraction logfile from 26. July 2011, 7:35
Iskra 1903 / Chapter One 1970-1972
Used drive : HL-DT-STDVDRAM GT30N Adapter: 0 ID: 0
Read mode : Secure
Utilize accurate stream : Yes
Defeat audio cache : Yes
Make use of C2 pointers : No
Read offset correction : 103
Overread into Lead-In and Lead-Out : No
Fill up missing offset samples with silence : Yes
Delete leading and trailing silent blocks : No
Null samples used in CRC calculations : Yes
Used interface : Native Win32 interface for Win NT & 2000
Gap handling : Appended to previous track
Used output format : L3Enc MP3 Encoder & Compatible
Selected bitrate : 320 kBit/s (Not available for all encoder)
Quality : High
Add ID3 tag : No
Command line compressor : C:\Program Files (x86)\Exact Audio Copy\Flac\flac.exe
Additional command line options : -8 -T "artist=%a" -T "title=%t" -T "album=%g" -T "date=%y" -T "tracknumber=%n" -T "genre=%m" %s
TOC of the extracted CD
Track | Start | Length | Start sector | End sector
---------------------------------------------------------
1 | 0:00.00 | 21:08.26 | 0 | 95125
2 | 21:08.26 | 5:42.64 | 95126 | 120839
3 | 26:51.15 | 11:41.12 | 120840 | 173426
4 | 38:32.27 | 5:09.48 | 173427 | 196649
5 | 43:42.00 | 25:20.64 | 196650 | 310713
Track 1
Filename C:\EACRips\Iskra 1903 - 2000 - Chapter One 1970-1972\01 - Improvisation 1.wav
Pre-gap length 0:00:02.00
Peak level 98.8 %
Track quality 100.0 %
Test CRC EE8F9643
Copy CRC EE8F9643
Track not present in AccurateRip database
Copy OK
Track 2
Filename C:\EACRips\Iskra 1903 - 2000 - Chapter One 1970-1972\02 - Improvisation 2.wav
Pre-gap length 0:00:05.00
Peak level 91.6 %
Track quality 100.0 %
Test CRC 816696EB
Copy CRC 816696EB
Track not present in AccurateRip database
Copy OK
Track 3
Filename C:\EACRips\Iskra 1903 - 2000 - Chapter One 1970-1972\03 - Improvisation 3.wav
Pre-gap length 0:00:05.00
Peak level 86.8 %
Track quality 100.0 %
Test CRC E89A0BEA
Copy CRC E89A0BEA
Track not present in AccurateRip database
Copy OK
Track 4
Filename C:\EACRips\Iskra 1903 - 2000 - Chapter One 1970-1972\04 - Improvisation 4.wav
Pre-gap length 0:00:05.00
Peak level 95.8 %
Track quality 100.0 %
Test CRC 9CB08532
Copy CRC 9CB08532
Track not present in AccurateRip database
Copy OK
Track 5
Filename C:\EACRips\Iskra 1903 - 2000 - Chapter One 1970-1972\05 - Improvisation 0.wav
Pre-gap length 0:00:05.00
Peak level 96.8 %
Track quality 99.9 %
Test CRC 77EE0ECF
Copy CRC 77EE0ECF
Track not present in AccurateRip database
Copy OK
None of the tracks are present in the AccurateRip database
No errors occurred
End of status report
 
B
Exact Audio Copy V0.99 prebeta 5 from 4. May 2009
EAC extraction logfile from 26. July 2011, 8:10
Iskra 1903 / Chapter One 1970-1972
Used drive : HL-DT-STDVDRAM GT30N Adapter: 0 ID: 0
Read mode : Secure
Utilize accurate stream : Yes
Defeat audio cache : Yes
Make use of C2 pointers : No
Read offset correction : 103
Overread into Lead-In and Lead-Out : No
Fill up missing offset samples with silence : Yes
Delete leading and trailing silent blocks : No
Null samples used in CRC calculations : Yes
Used interface : Native Win32 interface for Win NT & 2000
Gap handling : Appended to previous track
Used output format : L3Enc MP3 Encoder & Compatible
Selected bitrate : 320 kBit/s (Not available for all encoder)
Quality : High
Add ID3 tag : No
Command line compressor : C:\Program Files (x86)\Exact Audio Copy\Flac\flac.exe
Additional command line options : -8 -T "artist=%a" -T "title=%t" -T "album=%g" -T "date=%y" -T "tracknumber=%n" -T "genre=%m" %s
TOC of the extracted CD
Track | Start | Length | Start sector | End sector
---------------------------------------------------------
1 | 0:00.00 | 1:45.07 | 0 | 7881
2 | 1:45.07 | 4:30.35 | 7882 | 28166
3 | 6:15.42 | 11:27.45 | 28167 | 79736
4 | 17:43.12 | 5:59.44 | 79737 | 106705
5 | 23:42.56 | 10:53.20 | 106706 | 155700
6 | 34:36.01 | 4:34.15 | 155701 | 176265
7 | 39:10.16 | 6:26.01 | 176266 | 205216
8 | 45:36.17 | 3:44.00 | 205217 | 222016
9 | 49:20.17 | 3:14.18 | 222017 | 236584
10 | 52:34.35 | 7:34.08 | 236585 | 270642
Track 1
Filename C:\EACRips\Iskra 1903 - 2000 - Chapter One 1970-1972\01 - Offcut 3.wav
Pre-gap length 0:00:02.00
Peak level 99.5 %
Track quality 100.0 %
Test CRC 0B605C48
Copy CRC 0B605C48
Track not present in AccurateRip database
Copy OK
Track 2
Filename C:\EACRips\Iskra 1903 - 2000 - Chapter One 1970-1972\02 - Offcut 1.wav
Pre-gap length 0:00:05.00
Peak level 99.1 %
Track quality 100.0 %
Test CRC FBE93373
Copy CRC FBE93373
Track not present in AccurateRip database
Copy OK
Track 3
Filename C:\EACRips\Iskra 1903 - 2000 - Chapter One 1970-1972\03 - Offcut 2.wav
Pre-gap length 0:00:05.00
Peak level 88.8 %
Track quality 100.0 %
Test CRC AA0769DF
Copy CRC AA0769DF
Track not present in AccurateRip database
Copy OK
Track 4
Filename C:\EACRips\Iskra 1903 - 2000 - Chapter One 1970-1972\04 - Improvisation 5.wav
Pre-gap length 0:00:10.00
Peak level 94.8 %
Track quality 100.0 %
Test CRC 4B4C1967
Copy CRC 4B4C1967
Track not present in AccurateRip database
Copy OK
Track 5
Filename C:\EACRips\Iskra 1903 - 2000 - Chapter One 1970-1972\05 - Improvisation 6.wav
Pre-gap length 0:00:04.94
Peak level 91.4 %
Track quality 100.0 %
Test CRC C5C5CCEA
Copy CRC C5C5CCEA
Track not present in AccurateRip database
Copy OK
Track 6
Filename C:\EACRips\Iskra 1903 - 2000 - Chapter One 1970-1972\06 - Improvisation 7.wav
Pre-gap length 0:00:05.00
Peak level 91.7 %
Track quality 100.0 %
Test CRC C8705C18
Copy CRC C8705C18
Track not present in AccurateRip database
Copy OK
Track 7
Filename C:\EACRips\Iskra 1903 - 2000 - Chapter One 1970-1972\07 - Improvisation 8.wav
Pre-gap length 0:00:05.00
Peak level 100.0 %
Track quality 100.0 %
Test CRC 3C8E09B6
Copy CRC 3C8E09B6
Track not present in AccurateRip database
Copy OK
Track 8
Filename C:\EACRips\Iskra 1903 - 2000 - Chapter One 1970-1972\08 - Improvisation 9.wav
Pre-gap length 0:00:04.90
Peak level 100.0 %
Track quality 100.0 %
Test CRC 21734235
Copy CRC 21734235
Track not present in AccurateRip database
Copy OK
Track 9
Filename C:\EACRips\Iskra 1903 - 2000 - Chapter One 1970-1972\09 - Improvisation 10.wav
Pre-gap length 0:00:05.00
Peak level 98.8 %
Track quality 99.9 %
Test CRC 49931A07
Copy CRC 49931A07
Track not present in AccurateRip database
Copy OK
Track 10
Filename C:\EACRips\Iskra 1903 - 2000 - Chapter One 1970-1972\10 - Improvisation 11.wav
Pre-gap length 0:00:05.00
Peak level 96.4 %
Track quality 100.0 %
Test CRC CA85E216
Copy CRC CA85E216
Track not present in AccurateRip database
Copy OK
None of the tracks are present in the AccurateRip database
No errors occurred
End of status report
 
C
Exact Audio Copy V0.99 prebeta 5 from 4. May 2009
EAC extraction logfile from 26. July 2011, 8:58
Iskra 1903 / Chapter One 1970-1972
Used drive : HL-DT-STDVDRAM GT30N Adapter: 0 ID: 0
Read mode : Secure
Utilize accurate stream : Yes
Defeat audio cache : Yes
Make use of C2 pointers : No
Read offset correction : 103
Overread into Lead-In and Lead-Out : No
Fill up missing offset samples with silence : Yes
Delete leading and trailing silent blocks : No
Null samples used in CRC calculations : Yes
Used interface : Native Win32 interface for Win NT & 2000
Gap handling : Appended to previous track
Used output format : L3Enc MP3 Encoder & Compatible
Selected bitrate : 320 kBit/s (Not available for all encoder)
Quality : High
Add ID3 tag : No
Command line compressor : C:\Program Files (x86)\Exact Audio Copy\Flac\flac.exe
Additional command line options : -8 -T "artist=%a" -T "title=%t" -T "album=%g" -T "date=%y" -T "tracknumber=%n" -T "genre=%m" %s
TOC of the extracted CD
Track | Start | Length | Start sector | End sector
---------------------------------------------------------
1 | 0:00.00 | 7:52.00 | 0 | 35399
2 | 7:52.00 | 11:36.25 | 35400 | 87624
3 | 19:28.25 | 6:52.30 | 87625 | 118554
4 | 26:20.55 | 13:45.19 | 118555 | 180448
5 | 40:05.74 | 12:52.24 | 180449 | 238372
6 | 52:58.23 | 12:34.04 | 238373 | 294926
Track 1
Filename C:\EACRips\Iskra 1903 - 2000 - Chapter One 1970-1972\01 - Extra 1.wav
Pre-gap length 0:00:02.00
Peak level 72.6 %
Track quality 100.0 %
Test CRC C80990E0
Copy CRC C80990E0
Track not present in AccurateRip database
Copy OK
Track 2
Filename C:\EACRips\Iskra 1903 - 2000 - Chapter One 1970-1972\02 - Extra 2.wav
Pre-gap length 0:00:05.00
Peak level 98.0 %
Track quality 99.9 %
Test CRC C67962F7
Copy CRC C67962F7
Track not present in AccurateRip database
Copy OK
Track 3
Filename C:\EACRips\Iskra 1903 - 2000 - Chapter One 1970-1972\03 - Extra 3.wav
Pre-gap length 0:00:05.00
Peak level 85.3 %
Track quality 99.9 %
Test CRC 0202EC88
Copy CRC 0202EC88
Track not present in AccurateRip database
Copy OK
Track 4
Filename C:\EACRips\Iskra 1903 - 2000 - Chapter One 1970-1972\04 - On Tour 1.wav
Pre-gap length 0:00:10.00
Peak level 100.0 %
Track quality 100.0 %
Test CRC CCBBBC9E
Copy CRC CCBBBC9E
Track not present in AccurateRip database
Copy OK
Track 5
Filename C:\EACRips\Iskra 1903 - 2000 - Chapter One 1970-1972\05 - On Tour 3.wav
Pre-gap length 0:00:07.50
Peak level 65.1 %
Track quality 100.0 %
Test CRC C5D87A40
Copy CRC C5D87A40
Track not present in AccurateRip database
Copy OK
Track 6
Filename C:\EACRips\Iskra 1903 - 2000 - Chapter One 1970-1972\06 - On Tour 2.wav
Pre-gap length 0:00:07.50
Peak level 76.9 %
Track quality 100.0 %
Test CRC C54F0BF5
Copy CRC C54F0BF5
Track not present in AccurateRip database
Copy OK
None of the tracks are present in the AccurateRip database
No errors occurred
End of status report
 
Содержание индексной карты (.CUE)
 
A
REM GENRE "Free Improvisation"
REM DATE 2000
REM DISCID 2F102E05
REM COMMENT "ExactAudioCopy v0.99pb5"
FILE "01 - Improvisation 1.wav" WAVE
TRACK 01 AUDIO
INDEX 01 00:00:00
INDEX 02 06:14:44
TRACK 02 AUDIO
INDEX 00 21:03:26
FILE "02 - Improvisation 2.wav" WAVE
INDEX 01 00:00:00
TRACK 03 AUDIO
INDEX 00 05:37:64
FILE "03 - Improvisation 3.wav" WAVE
INDEX 01 00:00:00
TRACK 04 AUDIO
INDEX 00 11:36:12
FILE "04 - Improvisation 4.wav" WAVE
INDEX 01 00:00:00
TRACK 05 AUDIO
INDEX 00 05:04:48
FILE "05 - Improvisation 0.wav" WAVE
INDEX 01 00:00:00
INDEX 02 14:35:00
 
B
REM GENRE "Free Improvisation"
REM DATE 2000
REM DISCID 850E180A
REM COMMENT "ExactAudioCopy v0.99pb5"
FILE "01 - Offcut 3.wav" WAVE
TRACK 01 AUDIO
INDEX 01 00:00:00
TRACK 02 AUDIO
INDEX 00 01:40:07
FILE "02 - Offcut 1.wav" WAVE
INDEX 01 00:00:00
TRACK 03 AUDIO
INDEX 00 04:25:35
FILE "03 - Offcut 2.wav" WAVE
INDEX 01 00:00:00
TRACK 04 AUDIO
INDEX 00 11:17:45
FILE "04 - Improvisation 5.wav" WAVE
INDEX 01 00:00:00
TRACK 05 AUDIO
INDEX 00 05:54:48
FILE "05 - Improvisation 6.wav" WAVE
INDEX 01 00:00:00
TRACK 06 AUDIO
INDEX 00 10:48:20
FILE "06 - Improvisation 7.wav" WAVE
INDEX 01 00:00:00
TRACK 07 AUDIO
INDEX 00 04:29:15
FILE "07 - Improvisation 8.wav" WAVE
INDEX 01 00:00:00
TRACK 08 AUDIO
INDEX 00 06:21:08
FILE "08 - Improvisation 9.wav" WAVE
INDEX 01 00:00:00
TRACK 09 AUDIO
INDEX 00 03:39:00
FILE "09 - Improvisation 10.wav" WAVE
INDEX 01 00:00:00
TRACK 10 AUDIO
INDEX 00 03:09:18
FILE "10 - Improvisation 11.wav" WAVE
INDEX 01 00:00:00
 
C
REM GENRE "Free Improvisation"
REM DATE 2000
REM DISCID 430F5C06
REM COMMENT "ExactAudioCopy v0.99pb5"
FILE "01 - Extra 1.wav" WAVE
TRACK 01 AUDIO
INDEX 01 00:00:00
TRACK 02 AUDIO
INDEX 00 07:47:00
FILE "02 - Extra 2.wav" WAVE
INDEX 01 00:00:00
TRACK 03 AUDIO
INDEX 00 11:31:25
FILE "03 - Extra 3.wav" WAVE
INDEX 01 00:00:00
TRACK 04 AUDIO
INDEX 00 06:42:30
FILE "04 - On Tour 1.wav" WAVE
INDEX 01 00:00:00
TRACK 05 AUDIO
INDEX 00 13:37:56
FILE "05 - On Tour 3.wav" WAVE
INDEX 01 00:00:00
TRACK 06 AUDIO
INDEX 00 12:44:61
FILE "06 - On Tour 2.wav" WAVE
INDEX 01 00:00:00
 
Лог проверки качества
 
A
AUDIOCHECKER v2.0 beta (build 457) - by Dester - opdester@freemail.hu
~~~~~~~~~~~~~~~~~~~~~~~~~~~~~~~~~~
-=== DO NOT EDIT THIS FILE! ===-
Path: ...\A
01 -=- 01 - Improvisation 1.flac -=- CDDA (100%)
02 -=- 02 - Improvisation 2.flac -=- CDDA (100%)
03 -=- 03 - Improvisation 3.flac -=- CDDA (100%)
04 -=- 04 - Improvisation 4.flac -=- CDDA (99%)
05 -=- 05 - Improvisation 0.flac -=- CDDA (100%)
Summary 99,80% CDDA
5643748
 
B
AUDIOCHECKER v2.0 beta (build 457) - by Dester - opdester@freemail.hu
~~~~~~~~~~~~~~~~~~~~~~~~~~~~~~~~~~
-=== DO NOT EDIT THIS FILE! ===-
Path: ...\B
01 -=- 01 - Offcut 3.flac -=- CDDA (100%)
02 -=- 02 - Offcut 1.flac -=- CDDA (100%)
03 -=- 03 - Offcut 2.flac -=- CDDA (100%)
04 -=- 04 - Improvisation 5.flac -=- CDDA (100%)
05 -=- 05 - Improvisation 6.flac -=- CDDA (100%)
06 -=- 06 - Improvisation 7.flac -=- CDDA (100%)
07 -=- 07 - Improvisation 8.flac -=- CDDA (100%)
08 -=- 08 - Improvisation 9.flac -=- CDDA (100%)
09 -=- 09 - Improvisation 10.flac -=- CDDA (100%)
10 -=- 10 - Improvisation 11.flac -=- CDDA (100%)
Summary 100,00% CDDA
78699156
 
C
AUDIOCHECKER v2.0 beta (build 457) - by Dester - opdester@freemail.hu
~~~~~~~~~~~~~~~~~~~~~~~~~~~~~~~~~~
-=== DO NOT EDIT THIS FILE! ===-
Path: ...\C
01 -=- 01 - Extra 1.flac -=- CDDA (86%)
02 -=- 02 - Extra 2.flac -=- CDDA (54%)
03 -=- 03 - Extra 3.flac -=- CDDA (42%)
04 -=- 04 - On Tour 1.flac -=- CDDA (100%)
05 -=- 05 - On Tour 3.flac -=- CDDA (100%)
06 -=- 06 - On Tour 2.flac -=- CDDA (100%)
Summary 80,33% CDDA
155949172
По всем вопросам пишите личное сообщение пользователю M0p94ok.
19:11
154
Нет комментариев. Ваш будет первым!