Вы используете незарегистрированную версию компонента "Вкладки"!

Поиск

(Free Jazz) Hamiet Bluiett - Sankofa / Rear Garde - 1993, FLAC (tracks+.cue), lossless

(Free Jazz) Hamiet Bluiett - Sankofa / Rear Garde - 1993, FLAC (tracks+.cue), lossless
Треклист:
Hamiet Bluiett / Sankofa / Rear Garde
Жанр: Free Jazz
Страна-производитель диска: Italy
Год издания: 1993
Издатель (лейбл): Soul Note
Номер по каталогу: 121238-2
Аудиокодек: FLAC (*.flac)
Тип рипа: tracks+.cue
Битрейт аудио: lossless
Продолжительность: 59:11
Источник (релизер): Max Monteiro
Наличие сканов в содержимом раздачи: нет
Треклист:
1. John (Hamiet Bluiett) 9:06
2. Sankofa (Hamiet Bluiett) 2:43
3. Nuttin’ Special (Hamiet Bluiett) 6:39
4. Daddy Banks / Grandaddy Song (Hamiet Bluiett) 4:59
5. Black Vibrations (Clint Houston) 3:09
6. Diane (Charles Mingus) 6:52
7. « C » (Julius Hemphill) 6:05
8. Sunrise / Sunset (Hamiet Bluiett) 1:47
9. Enum (Hamiet Bluiett) 5:48
10. Some Other Line / Baker (Dedicated to Everett Baker) (Hamiet Bluiett) 5:09
11. Hang in There (Ted Dunbar) 6:54
 
Лог создания рипа
Exact Audio Copy V1.0 beta 3 from 29. August 2011
EAC extraction logfile from 20. February 2013, 15:55
Hamiet Bluiett / Sankofa / Rear Garde
Used drive : SlimtypeeNAU508 5 Adapter: 1 ID: 0
Read mode : Secure
Utilize accurate stream : Yes
Defeat audio cache : Yes
Make use of C2 pointers : No
Read offset correction : 6
Overread into Lead-In and Lead-Out : No
Fill up missing offset samples with silence : Yes
Delete leading and trailing silent blocks : No
Null samples used in CRC calculations : Yes
Used interface : Native Win32 interface for Win NT & 2000
Gap handling : Appended to previous track
Used output format : User Defined Encoder
Selected bitrate : 768 kBit/s
Quality : High
Add ID3 tag : No
Command line compressor : C:\Program Files (x86)\Exact Audio Copy\Flac\flac.exe
Additional command line options : -8 -V -T "ARTIST=%artist%" -T "TITLE=%title%" -T "ALBUM=%albumtitle%" -T "DATE=%year%" -T "TRACKNUMBER=%tracknr%" -T "GENRE=%genre%" -T "PERFORMER=%albuminterpret%" -T "COMPOSER=%composer%" %haslyrics%--tag-from-file=LYRICS="%lyricsfile%"%haslyrics% -T "ALBUMARTIST=%albumartist%" -T "DISCNUMBER=%cdnumber%" -T "TOTALDISCS=%totalcds%" -T "TOTALTRACKS=%numtracks%" -T "COMMENT=%comment%" %source% -o %dest%
TOC of the extracted CD
Track | Start | Length | Start sector | End sector
---------------------------------------------------------
1 | 0:00.33 | 9:06.12 | 33 | 40994
2 | 9:06.45 | 2:43.08 | 40995 | 53227
3 | 11:49.53 | 6:39.20 | 53228 | 83172
4 | 18:28.73 | 4:59.00 | 83173 | 105597
5 | 23:27.73 | 3:09.02 | 105598 | 119774
6 | 26:37.00 | 6:51.50 | 119775 | 150649
7 | 33:28.50 | 6:05.08 | 150650 | 178032
8 | 39:33.58 | 1:46.50 | 178033 | 186032
9 | 41:20.33 | 5:48.00 | 186033 | 212132
10 | 47:08.33 | 5:09.30 | 212133 | 235337
11 | 52:17.63 | 6:53.45 | 235338 | 266357
Track 1
Filename C:\EAC rips\01 - John.wav
Pre-gap length 0:00:02.33
Peak level 96.4 %
Extraction speed 1.2 X
Track quality 100.0 %
Test CRC 97533935
Copy CRC 97533935
Accurately ripped (confidence 4) [18E47EE7] (AR v1)
Copy OK
Track 2
Filename C:\EAC rips\02 - Sankofa.wav
Peak level 100.0 %
Extraction speed 1.2 X
Track quality 100.0 %
Test CRC 9939CC83
Copy CRC 9939CC83
Accurately ripped (confidence 4) [394D4F15] (AR v1)
Copy OK
Track 3
Filename C:\EAC rips\03 - Nuttin' Special.wav
Peak level 88.5 %
Extraction speed 1.5 X
Track quality 100.0 %
Test CRC DAD37BE6
Copy CRC DAD37BE6
Accurately ripped (confidence 4) [3A61813C] (AR v1)
Copy OK
Track 4
Filename C:\EAC rips\04 - Daddy Banks - Grandaddy Song.wav
Peak level 49.5 %
Extraction speed 1.6 X
Track quality 100.0 %
Test CRC 41739522
Copy CRC 41739522
Accurately ripped (confidence 4) [57224F08] (AR v1)
Copy OK
Track 5
Filename C:\EAC rips\05 - Black Vibrations.wav
Peak level 53.9 %
Extraction speed 1.5 X
Track quality 100.0 %
Test CRC 496D7051
Copy CRC 496D7051
Accurately ripped (confidence 4) [599EA3F7] (AR v1)
Copy OK
Track 6
Filename C:\EAC rips\06 - Diane.wav
Peak level 54.9 %
Extraction speed 1.7 X
Track quality 99.9 %
Test CRC 3659AD14
Copy CRC 3659AD14
Accurately ripped (confidence 4) [BA566CC7] (AR v1)
Copy OK
Track 7
Filename C:\EAC rips\07 - ''C''.wav
Peak level 64.4 %
Extraction speed 1.9 X
Track quality 100.0 %
Test CRC 604304AC
Copy CRC 604304AC
Accurately ripped (confidence 4) [C9514CA6] (AR v1)
Copy OK
Track 8
Filename C:\EAC rips\08 - Sunrise - Sunset.wav
Peak level 32.5 %
Extraction speed 1.6 X
Track quality 100.0 %
Test CRC 25BA7353
Copy CRC 25BA7353
Accurately ripped (confidence 4) [93427DAB] (AR v1)
Copy OK
Track 9
Filename C:\EAC rips\09 - Enum.wav
Peak level 76.8 %
Extraction speed 2.0 X
Track quality 100.0 %
Test CRC 012A2B43
Copy CRC 012A2B43
Accurately ripped (confidence 4) [209B62B0] (AR v1)
Copy OK
Track 10
Filename C:\EAC rips\10 - Some Other Line - Baker (Dedicated to Everett Baker).wav
Peak level 59.9 %
Extraction speed 1.9 X
Track quality 99.9 %
Test CRC FCADFB7B
Copy CRC FCADFB7B
Accurately ripped (confidence 4) [D8743C71] (AR v1)
Copy OK
Track 11
Filename C:\EAC rips\11 - Hang in There.wav
Peak level 97.2 %
Extraction speed 2.2 X
Track quality 100.0 %
Test CRC 40046DF0
Copy CRC 40046DF0
Accurately ripped (confidence 3) [F353239D] (AR v1)
Copy OK
All tracks accurately ripped
No errors occurred
End of status report
---- CUETools DB Plugin V2.1.4
[CTDB TOCID: reqfax.doxdSkYBITdOB1lQFdgI-] disk not present in database
Submit result: reqfax.doxdSkYBITdOB1lQFdgI- has been uploaded
==== Log checksum 87CBBF5665029B8A271425AD370F1FC1A3DD4A20D67E16F887822F2E1BAF5461 ====
 
Содержание индексной карты (.CUE)
REM GENRE Jazz
REM DATE 1993
REM DISCID 860DDF0B
REM COMMENT "ExactAudioCopy v1.0b3"
PERFORMER "Hamiet Bluiett"
TITLE "Sankofa / Rear Garde"
FILE "01 - John.wav" WAVE
TRACK 01 AUDIO
TITLE "John"
PERFORMER "Hamiet Bluiett"
PREGAP 00:00:33
INDEX 01 00:00:00
FILE "02 - Sankofa.wav" WAVE
TRACK 02 AUDIO
TITLE "Sankofa"
PERFORMER "Hamiet Bluiett"
INDEX 01 00:00:00
FILE "03 - Nuttin' Special.wav" WAVE
TRACK 03 AUDIO
TITLE "Nuttin' Special"
PERFORMER "Hamiet Bluiett"
INDEX 01 00:00:00
FILE "04 - Daddy Banks - Grandaddy Song.wav" WAVE
TRACK 04 AUDIO
TITLE "Daddy Banks / Grandaddy Song"
PERFORMER "Hamiet Bluiett"
INDEX 01 00:00:00
FILE "05 - Black Vibrations.wav" WAVE
TRACK 05 AUDIO
TITLE "Black Vibrations"
PERFORMER "Hamiet Bluiett"
INDEX 01 00:00:00
FILE "06 - Diane.wav" WAVE
TRACK 06 AUDIO
TITLE "Diane"
PERFORMER "Hamiet Bluiett"
INDEX 01 00:00:00
FILE "07 - ''C''.wav" WAVE
TRACK 07 AUDIO
TITLE "'C'"
PERFORMER "Hamiet Bluiett"
INDEX 01 00:00:00
FILE "08 - Sunrise - Sunset.wav" WAVE
TRACK 08 AUDIO
TITLE "Sunrise / Sunset"
PERFORMER "Hamiet Bluiett"
INDEX 01 00:00:00
FILE "09 - Enum.wav" WAVE
TRACK 09 AUDIO
TITLE "Enum"
PERFORMER "Hamiet Bluiett"
INDEX 01 00:00:00
FILE "10 - Some Other Line - Baker (Dedicated to Everett Baker).wav" WAVE
TRACK 10 AUDIO
TITLE "Some Other Line / Baker (Dedicated to Everett Baker)"
PERFORMER "Hamiet Bluiett"
INDEX 01 00:00:00
FILE "11 - Hang in There.wav" WAVE
TRACK 11 AUDIO
TITLE "Hang in There"
PERFORMER "Hamiet Bluiett"
INDEX 01 00:00:00
Доп. информация: Recorded October 2 & 3, 1992 at Sear Sound, New York City.
 
Состав
Hamiet Bluiett – Baritone Saxophone, Contralto Clarinet
Ted Dunbar – Guitar
Clint Houston – Bass
Ben Riley – Drums
Any questions -> support@pro-jazz.com. По всем вопросам пишите -> support@pro-jazz.com
09:24
296
Нет комментариев. Ваш будет первым!