Вы используете незарегистрированную версию компонента "Вкладки"!

Поиск

(Avant-Garde Jazz, Free Improvisation) Vinny Golia - Music For Like Instruments;The Flutes - 2004, FLAC (tracks+.cue), lossless

(Avant-Garde Jazz, Free Improvisation) Vinny Golia - Music For Like Instruments;The Flutes - 2004, FLAC (tracks+.cue), lossless
Треклист:
•Vinny Golia - Music For Like Instruments;The Flutes•
Жанр: Avant-Garde Jazz, Free Improvisation
Год издания: 2004
Издатель (лейбл): Nine Winds
Номер по каталогу: NWCD 0269
Аудиокодек: FLAC (*.flac)
Тип рипа: tracks+.cue
Битрейт аудио: lossless
Продолжительность: 01:07:35
Источник (релизер): Рип с диска.
Наличие сканов в содержимом раздачи: да
Треклист:
01. Lonely Micheal (The Last Of The Wasabai Series) [00:29]
02. An Alternative To Oregnum [05:22]
03. On The Train [03:32]
04. Dr. Lubbeck Pays A Visit, So Sam Phones Some Friends [07:24]
05. Poece [05:34]
06. Wasabi-One [00:55]
07. Six-Ninety [05:31]
08. Aquarina [06:32]
09. The Machinery Of History [08:42]
10. The Everyday Phone Call - For Bobby Bradford [04:40]
11. Wasabi-Two [00:39]
12. Red Dirt [05:48]
13. Wasabi-Three [00:52]
14. Da A [07:29]
15. Xenomorph [04:01]
 
Лог создания рипа
Exact Audio Copy V1.0 beta 3 from 29. August 2011
EAC extraction logfile from 16. February 2013, 14:42
Vinny Golia / Music For Like Instruments; The Flutes
Used drive : Optiarc DVD RW AD-5200A Adapter: 0 ID: 0
Read mode : Secure
Utilize accurate stream : Yes
Defeat audio cache : Yes
Make use of C2 pointers : No
Read offset correction : 48
Overread into Lead-In and Lead-Out : No
Fill up missing offset samples with silence : Yes
Delete leading and trailing silent blocks : No
Null samples used in CRC calculations : Yes
Used interface : Native Win32 interface for Win NT & 2000
Gap handling : Appended to previous track
Used output format : User Defined Encoder
Selected bitrate : 128 kBit/s
Quality : High
Add ID3 tag : No
Command line compressor : C:\Program Files\Exact Audio Copy\Flac\flac.exe
Additional command line options : -V -8 -T "Genre=%genre%" -T "Artist=%artist%" -T "Title=%title%" -T "Album=%albumtitle%" -T "Date=%year%" -T "Tracknumber=%tracknr%" -T "Comment=%comment%" %source%
TOC of the extracted CD
Track | Start | Length | Start sector | End sector
---------------------------------------------------------
1 | 0:00.00 | 0:29.35 | 0 | 2209
2 | 0:29.35 | 5:22.25 | 2210 | 26384
3 | 5:51.60 | 3:32.28 | 26385 | 42312
4 | 9:24.13 | 7:24.26 | 42313 | 75638
5 | 16:48.39 | 5:34.56 | 75639 | 100744
6 | 22:23.20 | 0:55.17 | 100745 | 104886
7 | 23:18.37 | 5:31.06 | 104887 | 129717
8 | 28:49.43 | 6:32.07 | 129718 | 159124
9 | 35:21.50 | 8:42.24 | 159125 | 198298
10 | 44:03.74 | 4:40.21 | 198299 | 219319
11 | 48:44.20 | 0:39.41 | 219320 | 222285
12 | 49:23.61 | 5:48.11 | 222286 | 248396
13 | 55:11.72 | 0:52.19 | 248397 | 252315
14 | 56:04.16 | 7:29.36 | 252316 | 286026
15 | 63:33.52 | 4:01.68 | 286027 | 304169
Track 1
Filename G:\2004.Vinny Golia - Music For Like Instruments (The Flutes)\01. Lonely Micheal (The Last Of The Wasabai Series).wav
Pre-gap length 0:00:02.00
Peak level 53.7 %
Extraction speed 1.1 X
Track quality 100.0 %
Test CRC 6CD9E6B4
Copy CRC 6CD9E6B4
Accurately ripped (confidence 2) [953C12A8] (AR v1)
Copy OK
Track 2
Filename G:\2004.Vinny Golia - Music For Like Instruments (The Flutes)\02. An Alternative To Oregnum.wav
Peak level 96.6 %
Extraction speed 2.3 X
Track quality 99.9 %
Test CRC 9138EB28
Copy CRC 9138EB28
Accurately ripped (confidence 2) [33E43CAF] (AR v1)
Copy OK
Track 3
Filename G:\2004.Vinny Golia - Music For Like Instruments (The Flutes)\03. On The Train.wav
Pre-gap length 0:00:03.00
Peak level 96.6 %
Extraction speed 2.7 X
Track quality 100.0 %
Test CRC 6C742619
Copy CRC 6C742619
Accurately ripped (confidence 2) [9087AECE] (AR v1)
Copy OK
Track 4
Filename G:\2004.Vinny Golia - Music For Like Instruments (The Flutes)\04. Dr. Lubbeck Pays A Visit, So Sam Phones Some Friends.wav
Pre-gap length 0:00:03.00
Peak level 96.6 %
Extraction speed 3.2 X
Track quality 100.0 %
Test CRC 8876B10C
Copy CRC 8876B10C
Accurately ripped (confidence 2) [F4CD480F] (AR v1)
Copy OK
Track 5
Filename G:\2004.Vinny Golia - Music For Like Instruments (The Flutes)\05. Poece.wav
Pre-gap length 0:00:03.00
Peak level 96.6 %
Extraction speed 3.5 X
Track quality 100.0 %
Test CRC 6791735D
Copy CRC 6791735D
Accurately ripped (confidence 2) [049355FC] (AR v1)
Copy OK
Track 6
Filename G:\2004.Vinny Golia - Music For Like Instruments (The Flutes)\06. Wasabi-One.wav
Pre-gap length 0:00:03.00
Peak level 97.1 %
Extraction speed 2.4 X
Track quality 100.0 %
Test CRC 87038668
Copy CRC 87038668
Accurately ripped (confidence 2) [03D2E19D] (AR v1)
Copy OK
Track 7
Filename G:\2004.Vinny Golia - Music For Like Instruments (The Flutes)\07. Six-Ninety.wav
Pre-gap length 0:00:02.00
Peak level 96.6 %
Extraction speed 3.7 X
Track quality 100.0 %
Test CRC F74F0EC4
Copy CRC F74F0EC4
Accurately ripped (confidence 2) [AB8AC7C3] (AR v1)
Copy OK
Track 8
Filename G:\2004.Vinny Golia - Music For Like Instruments (The Flutes)\08. Aquarina.wav
Pre-gap length 0:00:02.00
Peak level 96.6 %
Extraction speed 3.5 X
Track quality 99.9 %
Test CRC 2538D6E9
Copy CRC 2538D6E9
Accurately ripped (confidence 2) [F0847165] (AR v1)
Copy OK
Track 9
Filename G:\2004.Vinny Golia - Music For Like Instruments (The Flutes)\09. The Machinery Of History.wav
Pre-gap length 0:00:03.00
Peak level 96.6 %
Extraction speed 3.9 X
Track quality 100.0 %
Test CRC 97637465
Copy CRC 97637465
Accurately ripped (confidence 2) [09B05696] (AR v1)
Copy OK
Track 10
Filename G:\2004.Vinny Golia - Music For Like Instruments (The Flutes)\10. The Everyday Phone Call - For Bobby Bradford.wav
Pre-gap length 0:00:03.00
Peak level 96.6 %
Extraction speed 3.7 X
Track quality 100.0 %
Test CRC 7105F327
Copy CRC 7105F327
Accurately ripped (confidence 2) [8C70AF86] (AR v1)
Copy OK
Track 11
Filename G:\2004.Vinny Golia - Music For Like Instruments (The Flutes)\11. Wasabi-Two.wav
Pre-gap length 0:00:03.00
Peak level 96.6 %
Extraction speed 2.2 X
Track quality 100.0 %
Test CRC 14CB99B7
Copy CRC 14CB99B7
Accurately ripped (confidence 2) [26162F94] (AR v1)
Copy OK
Track 12
Filename G:\2004.Vinny Golia - Music For Like Instruments (The Flutes)\12. Red Dirt.wav
Pre-gap length 0:00:03.00
Peak level 80.1 %
Extraction speed 3.8 X
Track quality 100.0 %
Test CRC C2015934
Copy CRC C2015934
Accurately ripped (confidence 2) [A3746F19] (AR v1)
Copy OK
Track 13
Filename G:\2004.Vinny Golia - Music For Like Instruments (The Flutes)\13. Wasabi-Three.wav
Pre-gap length 0:00:03.00
Peak level 95.9 %
Extraction speed 2.5 X
Track quality 100.0 %
Test CRC FBA41D31
Copy CRC FBA41D31
Accurately ripped (confidence 2) [561A721B] (AR v1)
Copy OK
Track 14
Filename G:\2004.Vinny Golia - Music For Like Instruments (The Flutes)\14. Da A.wav
Pre-gap length 0:00:02.00
Peak level 96.6 %
Extraction speed 3.9 X
Track quality 100.0 %
Test CRC 1DCD77D1
Copy CRC 1DCD77D1
Accurately ripped (confidence 2) [810A220B] (AR v1)
Copy OK
Track 15
Filename G:\2004.Vinny Golia - Music For Like Instruments (The Flutes)\15. Xenomorph.wav
Pre-gap length 0:00:03.00
Peak level 96.6 %
Extraction speed 3.7 X
Track quality 100.0 %
Test CRC 64B09631
Copy CRC 64B09631
Accurately ripped (confidence 2) [7B4E8A28] (AR v1)
Copy OK
All tracks accurately ripped
No errors occurred
End of status report
==== Log checksum FDA23BBDE9C36A38B37B1E21A01B3C1C38994C331E89D855CC846072949E2BB0 ====
 
Содержание индексной карты (.CUE)
REM GENRE Jazz
REM DATE 2004
REM DISCID B10FD70F
REM COMMENT "ExactAudioCopy v1.0b3"
PERFORMER "Vinny Golia"
TITLE "Music For Like Instruments; The Flutes"
FILE "01. Lonely Micheal (The Last Of The Wasabai Series).wav" WAVE
TRACK 01 AUDIO
TITLE "Lonely Micheal (The Last Of The Wasabai Series)"
PERFORMER "Vinny Golia"
INDEX 01 00:00:00
FILE "02. An Alternative To Oregnum.wav" WAVE
TRACK 02 AUDIO
TITLE "An Alternative To Oregnum"
PERFORMER "Vinny Golia"
INDEX 01 00:00:00
TRACK 03 AUDIO
TITLE "On The Train"
PERFORMER "Vinny Golia"
INDEX 00 05:19:25
FILE "03. On The Train.wav" WAVE
INDEX 01 00:00:00
TRACK 04 AUDIO
TITLE "Dr. Lubbeck Pays A Visit, So Sam Phones Some Friends"
PERFORMER "Vinny Golia"
INDEX 00 03:29:28
FILE "04. Dr. Lubbeck Pays A Visit, So Sam Phones Some Friends.wav" WAVE
INDEX 01 00:00:00
TRACK 05 AUDIO
TITLE "Poece"
PERFORMER "Vinny Golia"
INDEX 00 07:21:26
FILE "05. Poece.wav" WAVE
INDEX 01 00:00:00
TRACK 06 AUDIO
TITLE "Wasabi-One"
PERFORMER "Vinny Golia"
INDEX 00 05:31:56
FILE "06. Wasabi-One.wav" WAVE
INDEX 01 00:00:00
TRACK 07 AUDIO
TITLE "Six-Ninety"
PERFORMER "Vinny Golia"
INDEX 00 00:53:17
FILE "07. Six-Ninety.wav" WAVE
INDEX 01 00:00:00
TRACK 08 AUDIO
TITLE "Aquarina"
PERFORMER "Vinny Golia"
INDEX 00 05:29:06
FILE "08. Aquarina.wav" WAVE
INDEX 01 00:00:00
TRACK 09 AUDIO
TITLE "The Machinery Of History"
PERFORMER "Vinny Golia"
INDEX 00 06:29:07
FILE "09. The Machinery Of History.wav" WAVE
INDEX 01 00:00:00
TRACK 10 AUDIO
TITLE "The Everyday Phone Call - For Bobby Bradford"
PERFORMER "Vinny Golia"
INDEX 00 08:39:24
FILE "10. The Everyday Phone Call - For Bobby Bradford.wav" WAVE
INDEX 01 00:00:00
TRACK 11 AUDIO
TITLE "Wasabi-Two"
PERFORMER "Vinny Golia"
INDEX 00 04:37:21
FILE "11. Wasabi-Two.wav" WAVE
INDEX 01 00:00:00
TRACK 12 AUDIO
TITLE "Red Dirt"
PERFORMER "Vinny Golia"
INDEX 00 00:36:41
FILE "12. Red Dirt.wav" WAVE
INDEX 01 00:00:00
TRACK 13 AUDIO
TITLE "Wasabi-Three"
PERFORMER "Vinny Golia"
INDEX 00 05:45:11
FILE "13. Wasabi-Three.wav" WAVE
INDEX 01 00:00:00
TRACK 14 AUDIO
TITLE "Da A"
PERFORMER "Vinny Golia"
INDEX 00 00:50:19
FILE "14. Da A.wav" WAVE
INDEX 01 00:00:00
TRACK 15 AUDIO
TITLE "Xenomorph"
PERFORMER "Vinny Golia"
INDEX 00 07:26:36
FILE "15. Xenomorph.wav" WAVE
INDEX 01 00:00:00
Any questions -> support@pro-jazz.com. По всем вопросам пишите -> support@pro-jazz.com
09:23
196
Нет комментариев. Ваш будет первым!