Вы используете незарегистрированную версию компонента "Вкладки"!

Поиск

(Free Jazz) Gunter Baby Sommer (with Steve Horenstein, JC Jones, Assif Tsachar, Yoni Silver, Yonatan Albalak, Yonatan Kretzmer) - Live In Jerusalem - 2009, FLAC (tracks+.cue), lossless

(Free Jazz) Gunter Baby Sommer (with Steve Horenstein, JC Jones, Assif Tsachar, Yoni Silver, Yonatan Albalak, Yonatan Kretzmer) - Live In Jerusalem - 2009, FLAC (tracks+.cue), lossless
Треклист:
Günter Baby Sommer - Live In Jerusalem
Жанр: Free Jazz
Год выпуска диска: 2009
Производитель диска: Kadima Collective (KCR19)
Источник: soulseek
Аудио кодек: FLAC
Тип рипа: tracks+.cue
Битрейт аудио: lossless
Продолжительность: 50:20
Трэклист:
1. Bojoh (Trio) 6:02
2. Jassek (Quartet) 10:40
3. Sommertime (Solo) 5:52
4. Bast (Trio) 13:18
5. Yo Yo Yo (Quartet) 13:12
6. Sababa (Duo) 6:20
All compositions by Günter Baby Sommer
Recorded at Kadima Salon, Jerusalem, 2008.
Günter Baby Sommer drums, percussion
Steve Horenstein baritone saxophone (1, 4), soprano saxophone (2)
JC Jones bass (1, 2)
Assif Tsachar tenor saxophone (2, 4, 6), bass clarinet (4)
Yoni Silver bass clarinet (5)
Yonatan Albalak guitar (5)
Yonatan Kretzmer tenor saxophone (5)
 
Отчёт EAC
Exact Audio Copy V0.99 prebeta 4 from 23. January 2008
EAC extraction logfile from -
gunter 'baby' sommer / gunter 'baby' sommer-live_in_jerusalem
Used drive : TSSTcorpCDDVDW SH-S223F Adapter: 0 ID: 0
Read mode : Secure
Utilize accurate stream : Yes
Defeat audio cache : Yes
Make use of C2 pointers : No
Read offset correction : 6
Overread into Lead-In and Lead-Out : No
Fill up missing offset samples with silence : Yes
Delete leading and trailing silent blocks : No
Null samples used in CRC calculations : No
Used interface : Installed external ASPI interface
Gap handling : Appended to previous track
Used output format : Internal WAV Routines
Sample format : 44.100 Hz; 16 Bit; Stereo
TOC of the extracted CD
Track | Start | Length | Start sector | End sector
---------------------------------------------------------
1 | 0:00.00 | 6:06.37 | 0 | 27486
2 | 6:06.37 | 10:45.20 | 27487 | 75881
3 | 16:51.57 | 5:56.69 | 75882 | 102650
4 | 22:48.51 | 13:18.02 | 102651 | 162502
5 | 36:06.53 | 7:50.46 | 162503 | 197798
6 | 43:57.24 | 6:23.07 | 197799 | 226530
Track 1
Filename C:\out\gunter'baby'sommer-live_in_jerusalem\gunter'baby'sommer-live,jerusalem-01-bojoh.wav
Pre-gap length 0:00:02.00
Peak level 100.0 %
Track quality 100.0 %
Copy CRC 65EA69AA
Track not present in AccurateRip database
Copy OK
Track 2
Filename C:\out\gunter'baby'sommer-live_in_jerusalem\gunter'baby'sommer-live,jerusalem-02-jassek.wav
Peak level 100.0 %
Track quality 100.0 %
Copy CRC 64579F54
Track not present in AccurateRip database
Copy OK
Track 3
Filename C:\out\gunter'baby'sommer-live_in_jerusalem\gunter'baby'sommer-live,jerusalem-03-sommertime.wav
Peak level 100.0 %
Track quality 100.0 %
Copy CRC 04BC0066
Track not present in AccurateRip database
Copy OK
Track 4
Filename C:\out\gunter'baby'sommer-live_in_jerusalem\gunter'baby'sommer-live,jerusalem-04-bast.wav
Peak level 100.0 %
Track quality 100.0 %
Copy CRC 6BB05622
Track not present in AccurateRip database
Copy OK
Track 5
Filename C:\out\gunter'baby'sommer-live_in_jerusalem\gunter'baby'sommer-live,jerusalem-05-yo_yo_yo.wav
Peak level 100.0 %
Track quality 100.0 %
Copy CRC 7AD967C0
Track not present in AccurateRip database
Copy OK
Track 6
Filename C:\out\gunter'baby'sommer-live_in_jerusalem\gunter'baby'sommer-live,jerusalem-06-sababa.wav
Peak level 96.8 %
Track quality 100.0 %
Copy CRC 6F60022E
Track not present in AccurateRip database
Copy OK
None of the tracks are present in the AccurateRip database
No errors occurred
End of status report
 
Отчёт Audiocheckera
AUDIOCHECKER v2.0 beta (build 457) - by Dester - opdester@freemail.hu
~~~~~~~~~~~~~~~~~~~~~~~~~~~~~~~~~~
-=== DO NOT EDIT THIS FILE! ===-
Path: ...\gunter 'baby' sommer - live in jerusalem
1 -=- gunter'baby'sommer-live,jerusalem-01-bojoh.flac -=- CDDA (100%)
2 -=- gunter'baby'sommer-live,jerusalem-02-jassek.flac -=- CDDA (100%)
3 -=- gunter'baby'sommer-live,jerusalem-03-sommertime.flac -=- CDDA (100%)
4 -=- gunter'baby'sommer-live,jerusalem-04-bast.flac -=- CDDA (100%)
5 -=- gunter'baby'sommer-live,jerusalem-05-yo_yo_yo.flac -=- CDDA (100%)
6 -=- gunter'baby'sommer-live,jerusalem-06-sababa.flac -=- CDDA (100%)
Summary 100.00% CDDA
21001780
 
cue
REM DATE 2008
REM DISCID 480BCC06
REM COMMENT "ExactAudioCopy v0.99pb4"
PERFORMER "gunter 'baby' sommer"
TITLE "gunter 'baby' sommer-live_in_jerusalem"
FILE "gunter'baby'sommer-live,jerusalem-01-bojoh.wav" WAVE
TRACK 01 AUDIO
TITLE "bojoh"
PERFORMER "gunter 'baby' sommer"
INDEX 01 00:00:00
FILE "gunter'baby'sommer-live,jerusalem-02-jassek.wav" WAVE
TRACK 02 AUDIO
TITLE "jassek"
PERFORMER "gunter 'baby' sommer"
INDEX 01 00:00:00
FILE "gunter'baby'sommer-live,jerusalem-03-sommertime.wav" WAVE
TRACK 03 AUDIO
TITLE "sommertime"
PERFORMER "gunter 'baby' sommer"
INDEX 01 00:00:00
FILE "gunter'baby'sommer-live,jerusalem-04-bast.wav" WAVE
TRACK 04 AUDIO
TITLE "bast"
PERFORMER "gunter 'baby' sommer"
INDEX 01 00:00:00
FILE "gunter'baby'sommer-live,jerusalem-05-yo_yo_yo.wav" WAVE
TRACK 05 AUDIO
TITLE "yo_yo_yo"
PERFORMER "gunter 'baby' sommer"
INDEX 01 00:00:00
FILE "gunter'baby'sommer-live,jerusalem-06-sababa.wav" WAVE
TRACK 06 AUDIO
TITLE "sababa"
PERFORMER "gunter 'baby' sommer"
INDEX 01 00:00:00
По всем вопросам пишите личное сообщение пользователю M0p94ok.
22:48
176
Нет комментариев. Ваш будет первым!