Поиск

(Free Improvisation) Mats Gustafsson / Sten Sandell / Raymond Strid / Philipp Wachsmann - Gush Wachs - 1996, FLAC (tracks+.cue), lossless

Треклист:
Mats Gustafsson / Sten Sandell / Raymond Strid / Philipp Wachsmann - Gush Wachs
Жанр: Free Improvisation
Год выпуска диска: 1996
Производитель диска: Bead Records (BEAD CD002)
Источник: soulseek
Аудио кодек: FLAC
Тип рипа: tracks+.cue
Битрейт аудио: lossless
Продолжительность: 1:07:50
Трэклист:
1. Electric Match (1893) 4:51
2. Gushwachs 3:48
3. Photographic Tricycle For Tourists (1883) 16:25
4. The Electric Torchlight Procession (1884) 10:18
5. Unrushed Time (1995) 01:48
6. Hanging Garden 02:15
7. Pictographic Lines 02:41
8. Phono Proposition 06:45
9. Duoscope Part I, Part II, Part III 08:04
10. Field Of Heavy Wires 10:20
Recorded at the Swedish Broadcasting Corporation 18 May 1994, in Studio 2 at the Broadcasting House, Stockholm, Sweden.
Mats Gustafsson soprano & baritone saxophones, flageolett, fluteophone
Sten Sandell piano, prepared piano, harmonium, analogue synthesizer, voice, percussion
Raymond Strid amplified & processed instruments & objects, table percussion
Philipp Wachsmann violin, viola, electronics, aks synthesizer, elastic
 
Отчёт EAC
Exact Audio Copy V0.99 prebeta 5 from 4. May 2009
EAC extraction logfile from 11. May 2010, 3:59
Gush & Philipp Wachsmann / Gushwachs
Used drive : TSSTcorpDVD+-RW TS-T633A Adapter: 1 ID: 0
Read mode : Secure
Utilize accurate stream : Yes
Defeat audio cache : Yes
Make use of C2 pointers : No
Read offset correction : 6
Overread into Lead-In and Lead-Out : No
Fill up missing offset samples with silence : Yes
Delete leading and trailing silent blocks : No
Null samples used in CRC calculations : Yes
Used interface : Installed external ASPI interface
Gap handling : Appended to previous track
Used output format : User Defined Encoder
Selected bitrate : 768 kBit/s
Quality : High
Add ID3 tag : Yes
Command line compressor : C:\Program Files (x86)\Exact Audio Copy\FLAC\FLAC.EXE
Additional command line options : -6 -V -T "ARTIST=%a" -T "TITLE=%t" -T "ALBUM=%g" -T "DATE=%y" -T "TRACKNUMBER=%n" -T "GENRE=%m" -T "COMMENT=%e" %s -o %d
TOC of the extracted CD
Track | Start | Length | Start sector | End sector
---------------------------------------------------------
1 | 0:00.32 | 4:56.53 | 32 | 22284
2 | 4:57.10 | 3:50.42 | 22285 | 39576
3 | 8:47.52 | 16:29.28 | 39577 | 113779
4 | 25:17.05 | 10:21.57 | 113780 | 160411
5 | 35:38.62 | 1:51.38 | 160412 | 168774
6 | 37:30.25 | 2:17.72 | 168775 | 179121
7 | 39:48.22 | 2:45.45 | 179122 | 191541
8 | 42:33.67 | 6:49.53 | 191542 | 222269
9 | 49:23.45 | 8:06.52 | 222270 | 258771
10 | 57:30.22 | 10:20.20 | 258772 | 305291
Track 1
Filename C:\Users\Public\Slsk\+++ SLSK ARCHIVE\+ new adds\+++ NEW RIPS\Gush & Philipp Wachsmann - 1994 - Gushwachs\01 - Electric match [1893].wav
Pre-gap length 0:00:02.42
Peak level 89.4 %
Track quality 100.0 %
Copy CRC AF22C282
Track not present in AccurateRip database
Copy OK
Track 2
Filename C:\Users\Public\Slsk\+++ SLSK ARCHIVE\+ new adds\+++ NEW RIPS\Gush & Philipp Wachsmann - 1994 - Gushwachs\02 - Gushwachs.wav
Pre-gap length 0:00:04.80
Peak level 89.5 %
Track quality 100.0 %
Copy CRC 36814BD6
Track not present in AccurateRip database
Copy OK
Track 3
Filename C:\Users\Public\Slsk\+++ SLSK ARCHIVE\+ new adds\+++ NEW RIPS\Gush & Philipp Wachsmann - 1994 - Gushwachs\03 - Photographic tricycle for tourists [1883].wav
Pre-gap length 0:00:02.42
Peak level 90.6 %
Track quality 100.0 %
Copy CRC 203A69F8
Track not present in AccurateRip database
Copy OK
Track 4
Filename C:\Users\Public\Slsk\+++ SLSK ARCHIVE\+ new adds\+++ NEW RIPS\Gush & Philipp Wachsmann - 1994 - Gushwachs\04 - The electric torchlight procession [1884].wav
Pre-gap length 0:00:03.64
Peak level 85.1 %
Track quality 100.0 %
Copy CRC F6E98DB4
Track not present in AccurateRip database
Copy OK
Track 5
Filename C:\Users\Public\Slsk\+++ SLSK ARCHIVE\+ new adds\+++ NEW RIPS\Gush & Philipp Wachsmann - 1994 - Gushwachs\05 - Unrushed time [1995].wav
Pre-gap length 0:00:03.62
Peak level 51.0 %
Track quality 100.0 %
Copy CRC 26338BDC
Track not present in AccurateRip database
Copy OK
Track 6
Filename C:\Users\Public\Slsk\+++ SLSK ARCHIVE\+ new adds\+++ NEW RIPS\Gush & Philipp Wachsmann - 1994 - Gushwachs\06 - Hanging garden.wav
Pre-gap length 0:00:02.90
Peak level 57.9 %
Track quality 100.0 %
Copy CRC 263D8510
Track not present in AccurateRip database
Copy OK
Track 7
Filename C:\Users\Public\Slsk\+++ SLSK ARCHIVE\+ new adds\+++ NEW RIPS\Gush & Philipp Wachsmann - 1994 - Gushwachs\07 - Pictographic lines.wav
Pre-gap length 0:00:02.00
Peak level 94.6 %
Track quality 100.0 %
Copy CRC 8D11A1BF
Track not present in AccurateRip database
Copy OK
Track 8
Filename C:\Users\Public\Slsk\+++ SLSK ARCHIVE\+ new adds\+++ NEW RIPS\Gush & Philipp Wachsmann - 1994 - Gushwachs\08 - Phono proposition.wav
Pre-gap length 0:00:04.22
Peak level 88.7 %
Track quality 100.0 %
Copy CRC 9F613A33
Track not present in AccurateRip database
Copy OK
Track 9
Filename C:\Users\Public\Slsk\+++ SLSK ARCHIVE\+ new adds\+++ NEW RIPS\Gush & Philipp Wachsmann - 1994 - Gushwachs\09 - Duoscope part I, part II, part III.wav
Pre-gap length 0:00:03.84
Peak level 88.2 %
Track quality 100.0 %
Copy CRC 2B57A64B
Track not present in AccurateRip database
Copy OK
Track 10
Filename C:\Users\Public\Slsk\+++ SLSK ARCHIVE\+ new adds\+++ NEW RIPS\Gush & Philipp Wachsmann - 1994 - Gushwachs\10 - Field of heavy wires.wav
Pre-gap length 0:00:02.36
Peak level 89.1 %
Track quality 100.0 %
Copy CRC 9ABD7C2E
Track not present in AccurateRip database
Copy OK
None of the tracks are present in the AccurateRip database
No errors occurred
End of status report
 
cue
REM GENRE Jazz
REM DATE 1994
REM DISCID 8B0FE60A
REM COMMENT "ExactAudioCopy v0.99pb5"
PERFORMER "Gush & Philipp Wachsmann"
TITLE "Gushwachs"
FILE "Gush & Philipp Wachsmann - 1994 - Gushwachs\01 - Electric match [1893].wav" WAVE
TRACK 01 AUDIO
TITLE "Electric match [1893]"
PERFORMER "Gush & Philipp Wachsmann"
PREGAP 00:00:32
INDEX 01 00:00:00
TRACK 02 AUDIO
TITLE "Gushwachs "
PERFORMER "Gush & Philipp Wachsmann"
INDEX 00 04:51:68
FILE "Gush & Philipp Wachsmann - 1994 - Gushwachs\02 - Gushwachs.wav" WAVE
INDEX 01 00:00:00
TRACK 03 AUDIO
TITLE "Photographic tricycle for tourists [1883]"
PERFORMER "Gush & Philipp Wachsmann"
INDEX 00 03:48:10
FILE "Gush & Philipp Wachsmann - 1994 - Gushwachs\03 - Photographic tricycle for tourists [1883].wav" WAVE
INDEX 01 00:00:00
TRACK 04 AUDIO
TITLE "The electric torchlight procession [1884] "
PERFORMER "Gush & Philipp Wachsmann"
INDEX 00 16:25:55
FILE "Gush & Philipp Wachsmann - 1994 - Gushwachs\04 - The electric torchlight procession [1884].wav" WAVE
INDEX 01 00:00:00
TRACK 05 AUDIO
TITLE "Unrushed time [1995]"
PERFORMER "Gush & Philipp Wachsmann"
INDEX 00 10:18:10
FILE "Gush & Philipp Wachsmann - 1994 - Gushwachs\05 - Unrushed time [1995].wav" WAVE
INDEX 01 00:00:00
TRACK 06 AUDIO
TITLE "Hanging garden"
PERFORMER "Gush & Philipp Wachsmann"
INDEX 00 01:48:45
FILE "Gush & Philipp Wachsmann - 1994 - Gushwachs\06 - Hanging garden.wav" WAVE
INDEX 01 00:00:00
TRACK 07 AUDIO
TITLE "Pictographic lines "
PERFORMER "Gush & Philipp Wachsmann"
INDEX 00 02:15:72
FILE "Gush & Philipp Wachsmann - 1994 - Gushwachs\07 - Pictographic lines.wav" WAVE
INDEX 01 00:00:00
TRACK 08 AUDIO
TITLE "Phono proposition"
PERFORMER "Gush & Philipp Wachsmann"
INDEX 00 02:41:28
FILE "Gush & Philipp Wachsmann - 1994 - Gushwachs\08 - Phono proposition.wav" WAVE
INDEX 01 00:00:00
TRACK 09 AUDIO
TITLE "Duoscope part I, part II, part III"
PERFORMER "Gush & Philipp Wachsmann"
INDEX 00 06:45:65
FILE "Gush & Philipp Wachsmann - 1994 - Gushwachs\09 - Duoscope part I, part II, part III.wav" WAVE
INDEX 01 00:00:00
TRACK 10 AUDIO
TITLE "Field of heavy wires"
PERFORMER "Gush & Philipp Wachsmann"
INDEX 00 08:04:25
FILE "Gush & Philipp Wachsmann - 1994 - Gushwachs\10 - Field of heavy wires.wav" WAVE
INDEX 01 00:00:00
 
Отчёт Audiocheckera
AUDIOCHECKER v2.0 beta (build 457) - by Dester - opdester@freemail.hu
~~~~~~~~~~~~~~~~~~~~~~~~~~~~~~~~~~
-=== DO NOT EDIT THIS FILE! ===-
Path: ...\gush & philipp wachsmann - 1994 - gushwachs
01 -=- 01 - Electric match [1893].flac -=- CDDA (49%)
02 -=- 02 - Gushwachs.flac -=- CDDA (85%)
03 -=- 03 - Photographic tricycle for tourists [1883].flac -=- MPEG (100%)
04 -=- 04 - The electric torchlight procession [1884].flac -=- MPEG (100%)
05 -=- 05 - Unrushed time [1995].flac -=- MPEG (99%)
06 -=- 06 - Hanging garden.flac -=- CDDA (43%)
07 -=- 07 - Pictographic lines.flac -=- CDDA (87%)
08 -=- 08 - Phono proposition.flac -=- MPEG (92%)
09 -=- 09 - Duoscope part I, part II, part III.flac -=- MPEG (99%)
10 -=- 10 - Field of heavy wires.flac -=- CDDA (76%)
Summary 35.00% CDDA
136555940
 
Спектры непринятых Audiocheckeroм файлов
По всем вопросам пишите личное сообщение пользователю M0p94ok.
22:47
250
Нет комментариев. Ваш будет первым!