Вы используете незарегистрированную версию компонента "Вкладки"!

Поиск

(Free Jazz, Guitar Jazz, Avant-Garde Jazz) Sonny Sharrock - Seize the Rainbow - 1987, FLAC (tracks+.cue), lossless

(Free Jazz, Guitar Jazz, Avant-Garde Jazz) Sonny Sharrock - Seize the Rainbow - 1987, FLAC (tracks+.cue), lossless
Треклист:
Sonny Sharrock - Seize the Rainbow Жанр: Free Jazz, Guitar Jazz, Avant-Garde Jazz
Год выпуска диска: 1987
Производитель диска: US
Аудио кодек: FLAC
Тип рипа: tracks+.cue
Битрейт аудио: lossless
Продолжительность: 44:30
Трэклист:
1. Dick Dogs 5:10
2. My Song 6:25
3. Fourteen 9:55
4. J.D. Shaa 5:37
5. Seize the Rainbow 4:32
6. The Past Adventures of Zydeco Honeycup 5:22
7. Sheraserhead's High-Top Sneakers 4:07
Доп. информация:
Recorded at Electric Lady Studio, New York City, May 1987.
Produced by Sonny Sharrock.
Melvin Gibbs - bass
Abe Speller , Pheeroan Aklaff - drums
Sonny Sharrock - guitar
 
XLD
X Lossless Decoder version 20090320 (105.1)
XLD extraction logfile from 2009-07-11 01:38:08 -0700
Sonny Sharrock / Seize The Rainbow
Used drive : MATSHITA DVD-R UJ-867 (revision HA13)
Use cdparanoia mode : YES (CDParanoia III 10.2 engine)
Disable audio cache : OK for the drive with cache less than 2750KB
Make use of C2 pointers : NO
Read offset correction : 102
Max retry count : 100
TOC of the extracted CD
Track | Start | Length | Start sector | End sector
---------------------------------------------------------
1 | 00:00:00 | 05:14:25 | 0 | 23574
2 | 05:14:25 | 06:29:20 | 23575 | 52769
3 | 11:43:45 | 10:00:57 | 52770 | 97826
4 | 21:44:27 | 05:37:38 | 97827 | 123139
5 | 27:21:65 | 04:34:72 | 123140 | 143761
6 | 31:56:62 | 08:24:05 | 143762 | 181566
7 | 40:20:67 | 04:08:58 | 181567 | 200224
Track 01
Filename : /Users/thomasshea/Desktop/Sonny Sharrock - Seize The Rainbow [FLAC]/01 Sonny Sharrock - Dick Dogs.flac
CRC32 hash (test run) : 9C8A22BE
CRC32 hash : 9C8A22BE
CRC32 hash (skip zero) : 95EBA3C6
AccurateRip signature : 7CE532B1
->Accurately ripped! (confidence 4)
Statistics
Read error : 0
Skipped (treated as error) : 0
Edge jitter error (maybe fixed) : 0
Atom jitter error (maybe fixed) : 0
Drift error (maybe fixed) : 0
Dropped bytes error (maybe fixed) : 0
Duplicated bytes error (maybe fixed) : 0
Track 02
Filename : /Users/thomasshea/Desktop/Sonny Sharrock - Seize The Rainbow [FLAC]/02 Sonny Sharrock - My Song.flac
CRC32 hash (test run) : 6846D571
CRC32 hash : 6846D571
CRC32 hash (skip zero) : 49BE3001
AccurateRip signature : 2D984B77
->Accurately ripped! (confidence 4)
Statistics
Read error : 0
Skipped (treated as error) : 0
Edge jitter error (maybe fixed) : 0
Atom jitter error (maybe fixed) : 0
Drift error (maybe fixed) : 0
Dropped bytes error (maybe fixed) : 0
Duplicated bytes error (maybe fixed) : 0
Track 03
Filename : /Users/thomasshea/Desktop/Sonny Sharrock - Seize The Rainbow [FLAC]/03 Sonny Sharrock - Fourteen.flac
CRC32 hash (test run) : AAE51E54
CRC32 hash : AAE51E54
CRC32 hash (skip zero) : 2FC77C35
AccurateRip signature : 25133F0B
->Accurately ripped! (confidence 4)
Statistics
Read error : 0
Skipped (treated as error) : 0
Edge jitter error (maybe fixed) : 0
Atom jitter error (maybe fixed) : 0
Drift error (maybe fixed) : 0
Dropped bytes error (maybe fixed) : 0
Duplicated bytes error (maybe fixed) : 0
Track 04
Filename : /Users/thomasshea/Desktop/Sonny Sharrock - Seize The Rainbow [FLAC]/04 Sonny Sharrock - J. D. Schaa.flac
CRC32 hash (test run) : 55350E7A
CRC32 hash : 55350E7A
CRC32 hash (skip zero) : CFE4C1F1
AccurateRip signature : 8EEA7998
->Accurately ripped! (confidence 4)
Statistics
Read error : 0
Skipped (treated as error) : 0
Edge jitter error (maybe fixed) : 0
Atom jitter error (maybe fixed) : 0
Drift error (maybe fixed) : 0
Dropped bytes error (maybe fixed) : 0
Duplicated bytes error (maybe fixed) : 0
Track 05
Filename : /Users/thomasshea/Desktop/Sonny Sharrock - Seize The Rainbow [FLAC]/05 Sonny Sharrock - Seize The Rainbow.flac
CRC32 hash (test run) : DC94248D
CRC32 hash : DC94248D
CRC32 hash (skip zero) : A2FA6E6B
AccurateRip signature : A1F7ED98
->Accurately ripped! (confidence 4)
Statistics
Read error : 0
Skipped (treated as error) : 0
Edge jitter error (maybe fixed) : 0
Atom jitter error (maybe fixed) : 0
Drift error (maybe fixed) : 0
Dropped bytes error (maybe fixed) : 0
Duplicated bytes error (maybe fixed) : 0
Track 06
Filename : /Users/thomasshea/Desktop/Sonny Sharrock - Seize The Rainbow [FLAC]/06 Sonny Sharrock - The Past Adventures Of Zydeco Honeycup.flac
CRC32 hash (test run) : BA20E829
CRC32 hash : BA20E829
CRC32 hash (skip zero) : 6C541129
AccurateRip signature : D4F1E845
->Accurately ripped! (confidence 4)
Statistics
Read error : 0
Skipped (treated as error) : 0
Edge jitter error (maybe fixed) : 0
Atom jitter error (maybe fixed) : 0
Drift error (maybe fixed) : 0
Dropped bytes error (maybe fixed) : 0
Duplicated bytes error (maybe fixed) : 0
Track 07
Filename : /Users/thomasshea/Desktop/Sonny Sharrock - Seize The Rainbow [FLAC]/07 Sonny Sharrock - Sheraserhead's Hightop Sneakers.flac
CRC32 hash (test run) : CA776185
CRC32 hash : CA776185
CRC32 hash (skip zero) : 358B351F
AccurateRip signature : 850DD9DC
->Accurately ripped! (confidence 4)
Statistics
Read error : 0
Skipped (treated as error) : 0
Edge jitter error (maybe fixed) : 0
Atom jitter error (maybe fixed) : 0
Drift error (maybe fixed) : 0
Dropped bytes error (maybe fixed) : 0
Duplicated bytes error (maybe fixed) : 0
No errors occurred
End of status report
 
CUE
TITLE "Seize The Rainbow"
PERFORMER "Sonny Sharrock"
REM GENRE "Blues"
REM DATE 1987
FILE "01 Sonny Sharrock - Dick Dogs.wav" WAVE
TRACK 01 AUDIO
TITLE "Dick Dogs"
INDEX 01 00:00:00
TRACK 02 AUDIO
TITLE "My Song"
INDEX 00 05:13:20
FILE "02 Sonny Sharrock - My Song.wav" WAVE
INDEX 01 00:00:00
TRACK 03 AUDIO
TITLE "Fourteen"
INDEX 00 06:27:72
FILE "03 Sonny Sharrock - Fourteen.wav" WAVE
INDEX 01 00:00:00
TRACK 04 AUDIO
TITLE "J. D. Schaa"
INDEX 00 09:59:20
FILE "04 Sonny Sharrock - J. D. Schaa.wav" WAVE
INDEX 01 00:00:00
TRACK 05 AUDIO
TITLE "Seize The Rainbow"
INDEX 00 05:36:30
FILE "05 Sonny Sharrock - Seize The Rainbow.wav" WAVE
INDEX 01 00:00:00
TRACK 06 AUDIO
TITLE "The Past Adventures Of Zydeco Honeycup"
INDEX 00 04:33:72
FILE "06 Sonny Sharrock - The Past Adventures Of Zydeco Honeycup.wav" WAVE
INDEX 01 00:00:00
TRACK 07 AUDIO
TITLE "Sheraserhead's Hightop Sneakers"
INDEX 00 08:23:13
FILE "07 Sonny Sharrock - Sheraserhead's Hightop Sneakers.wav" WAVE
INDEX 01 00:00:00
Any questions -> support@pro-jazz.com. По всем вопросам пишите -> support@pro-jazz.com
19:57
133
Нет комментариев. Ваш будет первым!