Вы используете незарегистрированную версию компонента "Вкладки"!

Поиск

(Avant Garde, NYC Downtown, Tzadik Film Music) Wayne Horvitz - Film Music - 2002, FLAC (image+.cue), lossless

(Avant Garde, NYC Downtown, Tzadik Film Music) Wayne Horvitz - Film Music - 2002, FLAC (image+.cue), lossless
Треклист:
Wayne Horvitz - Film Music
Жанр: Avant Garde, NYC Downtown, Tzadik Film Music
Год выпуска диска: 2002
Производитель диска: USA (Tzadik)
Аудио кодек: FLAC
Тип рипа: image+.cue
Битрейт аудио: lossless
Продолжительность: 73.54
Трэклист:
1 Car In The Lake
2 The Shell
3 Putting It Together
4 Clogging The Canal
5 Sell Out
6 Vegas
7 The Curtain
8 The Aggregate
9 Nouveau Riche I
10 Walking In Venice
11 The Museum
12 Monterey
13 In The Closet
14 Sky Shot
15 Up And Over
16 Night Life, Right Life
17 Floating The Blues
18 In The House
19 Capricious Midnight
20 Twistin And Turnin
21 Mrs. Bates
22 Nouveau Riche II
23 Glass On The Water
24 Walking The Plaza
25 Mumble
26 From Where I See It Now
27 Inside The Outside
28 Buena Note
29 Car In The Lake II
30 Prelude
31 Scene I
32 Hot Dog
33 The Chase
34 House Of Mirrors
35 Lady In The Box
36 Mealtime
37 Eating The Egg
38 William Tell
39 Barber Shop
40 The Girl
41 The Show
42 The Circus Prospered
43 Pitch Fork
44 Charlie On The Ropes
45 The Store / The Campfire
46 The Wedding
47 Finale: The Circus Leaves Town
Доп. информация: Tracks 1,7,13,18,32,25 & 29 recorded for "An Untilited Film" directed by Gus Van Sant (2000)
Wayne Horvitz - samples & editing
Tracks 2,4,8,10,12,14,23,24 & 28 recorded for "Chihuly Over Venice" directed by Gary Gibson (1998)
Wayne Horvitz - organ, piano, keyboards
Timothy Young, Bill Frisell, Andre Otraskin - guitars
Hans Teuber - saxophones, flute
Brian Kent, CraigFlory - saxophone
Julian Friester - trombone
Jen Charowhas - violin
Fred Chalenor - electric bass
Mike Bisio - acoustic bass
Andy Roth - drums
Ed Pias - percussion
Tracks 3,11,20 & 26 recorded for "design and Construction" directed by The Expirience Music Project for The Exibit "The Gehry Expirience"
Wayne Horvitz -piano, organ, keyboards
Timothy Young - guitar
Reggie Watts - keyboards, voice
Skerik - saxophones, electronics
DJ Logic - turntables
Davis Martin - drums
Tracks 6,9,16,19,22 & 27 recorded for a film "Bellago"
Wayne Horvitz -piano, organ, keyboards
Timothy Young, Bill Frisell - guitars
Hans Teuber - saxophones & flute
Jen Chaowhas - violin
Keith Lowe - acoustic & electric bass
Andy Roth - drums
Tracks 5,15 & 17 recorded for "Demos"
Wayne Horvitz - piano, organ, keyboards
Reggie Watts - voice
Timothy Young - guitar
Doug Wieselman - clarinet, saxophones, guitar
Eyvind Kang - viola
Keith Lowe - acoustic & electric bass
Andy Roth - drums
Tracks 30-47 concreived for Charlie Chaplin's The "Circus"
Mischa Shmidt - violin
Laura Deluga - clarinet, bass clarinet
Doug Wieselman - clarinet & tenor sax
Robin Holcomb - piano
Wayne Horvitz - piano
Собственный рип с оригинального диска
 
eac log
Exact Audio Copy V0.99 prebeta 5 from 4. May 2009
EAC extraction logfile from 17. March 2010, 3:36
Wayne Horvitz / Film Music
Used drive : TSSTcorpCDDVDW TS-L633C Adapter: 0 ID: 1
Read mode : Secure
Utilize accurate stream : Yes
Defeat audio cache : Yes
Make use of C2 pointers : No
Read offset correction : 6
Overread into Lead-In and Lead-Out : No
Fill up missing offset samples with silence : Yes
Delete leading and trailing silent blocks : No
Null samples used in CRC calculations : Yes
Used interface : Native Win32 interface for Win NT & 2000
Used output format : User Defined Encoder
Selected bitrate : 768 kBit/s
Quality : High
Add ID3 tag : No
Command line compressor : C:\Program Files (x86)\Exact Audio Copy\Flac\flac.exe
Additional command line options : -8 -V %s
TOC of the extracted CD
Track | Start | Length | Start sector | End sector
---------------------------------------------------------
1 | 0:00.00 | 1:08.35 | 0 | 5134
2 | 1:08.35 | 1:03.51 | 5135 | 9910
3 | 2:12.11 | 2:22.55 | 9911 | 20615
4 | 4:34.66 | 0:47.28 | 20616 | 24168
5 | 5:22.19 | 1:01.31 | 24169 | 28774
6 | 6:23.50 | 1:36.72 | 28775 | 36046
7 | 8:00.47 | 0:20.07 | 36047 | 37553
8 | 8:20.54 | 1:20.26 | 37554 | 43579
9 | 9:41.05 | 0:28.44 | 43580 | 45723
10 | 10:09.49 | 1:19.66 | 45724 | 51714
11 | 11:29.40 | 2:10.59 | 51715 | 61523
12 | 13:40.24 | 1:22.61 | 61524 | 67734
13 | 15:03.10 | 1:15.69 | 67735 | 73428
14 | 16:19.04 | 0:28.11 | 73429 | 75539
15 | 16:47.15 | 1:02.65 | 75540 | 80254
16 | 17:50.05 | 0:52.40 | 80255 | 84194
17 | 18:42.45 | 1:05.14 | 84195 | 89083
18 | 19:47.59 | 0:35.09 | 89084 | 91717
19 | 20:22.68 | 0:57.61 | 91718 | 96053
20 | 21:20.54 | 1:05.19 | 96054 | 100947
21 | 22:25.73 | 0:44.36 | 100948 | 104283
22 | 23:10.34 | 1:06.35 | 104284 | 109268
23 | 24:16.69 | 1:28.23 | 109269 | 115891
24 | 25:45.17 | 0:58.19 | 115892 | 120260
25 | 26:43.36 | 0:37.12 | 120261 | 123047
26 | 27:20.48 | 1:51.61 | 123048 | 131433
27 | 29:12.34 | 1:52.33 | 131434 | 139866
28 | 31:04.67 | 1:09.24 | 139867 | 145065
29 | 32:14.16 | 1:11.25 | 145066 | 150415
30 | 33:25.41 | 1:49.32 | 150416 | 158622
31 | 35:14.73 | 3:27.32 | 158623 | 174179
32 | 38:42.30 | 2:20.11 | 174180 | 184690
33 | 41:02.41 | 0:26.01 | 184691 | 186641
34 | 41:28.42 | 2:56.58 | 186642 | 199899
35 | 44:25.25 | 2:00.58 | 199900 | 208957
36 | 46:26.08 | 0:37.60 | 208958 | 211792
37 | 47:03.68 | 2:11.70 | 211793 | 221687
38 | 49:15.63 | 1:39.03 | 221688 | 229115
39 | 50:54.66 | 3:01.41 | 229116 | 242731
40 | 53:56.32 | 2:25.31 | 242732 | 253637
41 | 56:21.63 | 2:14.31 | 253638 | 263718
42 | 58:36.19 | 1:48.03 | 263719 | 271821
43 | 60:24.22 | 2:27.05 | 271822 | 282851
44 | 62:51.27 | 4:34.28 | 282852 | 303429
45 | 67:25.55 | 3:01.21 | 303430 | 317025
46 | 70:27.01 | 1:41.55 | 317026 | 324655
47 | 72:08.56 | 1:45.26 | 324656 | 332556
Range status and errors
Selected range
Filename C:\CDs\Wayne Horvitz - Film Music\Wayne Horvitz - Film Music.wav
Peak level 100.0 %
Range quality 100.0 %
Copy CRC 17A26563
Copy OK
No errors occurred
AccurateRip summary
Track 1 accurately ripped (confidence 1) [D47C2C8C]
Track 2 accurately ripped (confidence 1) [45087AD0]
Track 3 accurately ripped (confidence 2) [1977C207]
Track 4 accurately ripped (confidence 1) [03236A4D]
Track 5 accurately ripped (confidence 2) [E93EA4E9]
Track 6 accurately ripped (confidence 1) [C39A687F]
Track 7 accurately ripped (confidence 1) [48AFA99D]
Track 8 accurately ripped (confidence 1) [C27E71E9]
Track 9 accurately ripped (confidence 1) [D7B2DA1C]
Track 10 accurately ripped (confidence 1) [94BCA45B]
Track 11 accurately ripped (confidence 1) [EF21D1EA]
Track 12 accurately ripped (confidence 1) [3CEBB361]
Track 13 accurately ripped (confidence 1) [79D9D2AD]
Track 14 accurately ripped (confidence 1) [0155147C]
Track 15 accurately ripped (confidence 2) [5A5675FC]
Track 16 accurately ripped (confidence 1) [5CF5C45A]
Track 17 accurately ripped (confidence 1) [491F2282]
Track 18 accurately ripped (confidence 1) [2176040B]
Track 19 accurately ripped (confidence 1) [566966BA]
Track 20 accurately ripped (confidence 2) [CE6D68C9]
Track 21 accurately ripped (confidence 1) [A0F2DBAD]
Track 22 accurately ripped (confidence 1) [423C226A]
Track 23 accurately ripped (confidence 2) [CBCD102F]
Track 24 accurately ripped (confidence 1) [55BCBA3C]
Track 25 accurately ripped (confidence 1) [A65067A1]
Track 26 accurately ripped (confidence 2) [C5092337]
Track 27 accurately ripped (confidence 1) [3A657CA6]
Track 28 accurately ripped (confidence 1) [6B38CDD2]
Track 29 accurately ripped (confidence 1) [39C8C1E5]
Track 30 accurately ripped (confidence 1) [618E3AE3]
Track 31 accurately ripped (confidence 1) [AD849E11]
Track 32 accurately ripped (confidence 1) [35ABFB4C]
Track 33 accurately ripped (confidence 1) [0410CB6E]
Track 34 accurately ripped (confidence 1) [84EE2068]
Track 35 accurately ripped (confidence 1) [CDD9656B]
Track 36 accurately ripped (confidence 1) [A4E08C89]
Track 37 accurately ripped (confidence 1) [53E0CB04]
Track 38 accurately ripped (confidence 1) [29CDE294]
Track 39 accurately ripped (confidence 1) [95DD85ED]
Track 40 accurately ripped (confidence 1) [3A863380]
Track 41 accurately ripped (confidence 1) [2E599E0D]
Track 42 accurately ripped (confidence 1) [BAB4E884]
Track 43 accurately ripped (confidence 1) [2A6CB1DB]
Track 44 accurately ripped (confidence 1) [60562D54]
Track 45 accurately ripped (confidence 1) [A5AE6C34]
Track 46 accurately ripped (confidence 1) [94F1C268]
Track 47 cannot be verified as accurate (confidence 1) [8DB596CC], AccurateRip returned [44449131]
46 track(s) accurately ripped
1 track(s) could not be verified as accurate
Some tracks could not be verified as accurate
End of status report
По всем вопросам пишите личное сообщение пользователю M0p94ok.
19:58
142
Нет комментариев. Ваш будет первым!