Вы используете незарегистрированную версию компонента "Вкладки"!

Поиск

(free jazz) Goat's Notes - Fuzzy Wonder - 2013, FLAC (tracks+.cue), lossless

(free jazz) Goat's Notes - Fuzzy Wonder - 2013, FLAC (tracks+.cue), lossless
Треклист:
Goat's Notes / Fuzzy Wonder
Жанр: free jazz
Год издания: 2013
Издатель (лейбл): Leo Records
Номер по каталогу: CD LR 661
Аудиокодек: FLAC (*.flac)
Тип рипа: tracks+.cue
Битрейт аудио: lossless
Продолжительность: 52:44
Источник (релизер): AG
Наличие сканов в содержимом раздачи: да
Треклист:
1 Somebody in My Closet 2:57
2 Party Flowers 5:01
3 Shy Guests from Mars 3:14
4 Preface & Gentle Chimeras 4:25
5 Little Scene for Beckett 3:36
6 Landscape Architecture 3:29
7 Kitchen On Fire 4:11
8 Moses' First Desert Morning 7:31
9 The Fence 5:56
10 Elegy 2:24
11 Salad for the Happy Ones 5:31
12 A Crumble 0:19
13 Beware of Holidays 2:41
14 Cheap Sunrise 1:24
Состав:
Grigory Sandomirsky - piano, melodica
Vladimir Kudryavtsev - bass
Maria Logofet - violin
Piotr Talalay - drums
Andrey Bessonov - clarinet
Ilya Vilkov - trombone
 
Лог создания рипа
Exact Audio Copy V1.0 beta 3 from 29. August 2011
Отчёт EAC об извлечении, выполненном 20. сентября 2013, 12:09
Goat's Notes / Fuzzy Wonder
Дисковод: Optiarc DVD RW AD-7580S Adapter: 1 ID: 0
Режим чтения : Достоверность
Использование точного потока : Да
Отключение кэша аудио : Да
Использование указателей C2 : Нет
Коррекция смещения при чтении : 6
Способность читать области Lead-in и Lead-out : Нет
Заполнение пропущенных сэмплов тишиной : Да
Удаление блоков с тишиной в начале и конце : Нет
При вычислениях CRC использовались нулевые сэмплы : Да
Интерфейс : Встроенный Win32-интерфейс для Win NT/2000
Обработка зазоров : Добавлено к предыдущему треку
Выходной формат : Пользовательский кодировщик
Выбранный битрейт : 768 kBit/s
Качество : Высокий
Добавление ID3-тега : Нет
Утилита сжатия : C:\Program Files\Exact Audio Copy\FLAC\FLAC.EXE
Дополнительные параметры : -V -8 -T "Genre=%genre%" -T "Artist=%artist%" -T "Title=%title%" -T "Album=%albumtitle%" -T "Date=%year%" -T "Tracknumber=%tracknr%" -T "Comment=%comment%" %source%
TOC извлечённого CD
Трек | Старт | Длительность | Начальный сектор | Конечный сектор
---------------------------------------------------------------------
1 | 0:00.00 | 2:57.14 | 0 | 13288
2 | 2:57.14 | 5:01.05 | 13289 | 35868
3 | 7:58.19 | 3:14.17 | 35869 | 50435
4 | 11:12.36 | 4:25.23 | 50436 | 70333
5 | 15:37.59 | 3:35.74 | 70334 | 86532
6 | 19:13.58 | 3:29.38 | 86533 | 102245
7 | 22:43.21 | 4:11.53 | 102246 | 121123
8 | 26:54.74 | 7:31.33 | 121124 | 154981
9 | 34:26.32 | 5:56.55 | 154982 | 181736
10 | 40:23.12 | 2:24.61 | 181737 | 192597
11 | 42:47.73 | 5:31.24 | 192598 | 217446
12 | 48:19.22 | 0:19.35 | 217447 | 218906
13 | 48:38.57 | 2:40.72 | 218907 | 230978
14 | 51:19.54 | 1:24.43 | 230979 | 237321
Трек 1
Имя файла H:\Музыка HQ\Goat's Notes\2013 - Fuzzy Wonder\01 Somebody In My Closet.wav
Длина предзазора 0:00:02.00
Пиковый уровень 53.5 %
Скорость извлечения 1.0 X
Качество трека 100.0 %
CRC теста 98F3B0A0
CRC копии 98F3B0A0
Копирование... OK
Трек 2
Имя файла H:\Музыка HQ\Goat's Notes\2013 - Fuzzy Wonder\02 Party Flowers.wav
Пиковый уровень 95.9 %
Скорость извлечения 1.2 X
Качество трека 100.0 %
CRC теста 6958EC36
CRC копии 6958EC36
Копирование... OK
Трек 3
Имя файла H:\Музыка HQ\Goat's Notes\2013 - Fuzzy Wonder\03 Shy Guests From Mars.wav
Пиковый уровень 95.6 %
Скорость извлечения 1.0 X
Качество трека 99.9 %
CRC теста 3510FAC2
CRC копии 3510FAC2
Копирование... OK
Трек 4
Имя файла H:\Музыка HQ\Goat's Notes\2013 - Fuzzy Wonder\04 Preface & Gentle Chimeras.wav
Пиковый уровень 96.1 %
Скорость извлечения 1.4 X
Качество трека 100.0 %
CRC теста 79336773
CRC копии 79336773
Копирование... OK
Трек 5
Имя файла H:\Музыка HQ\Goat's Notes\2013 - Fuzzy Wonder\05 Little Scene For Beckett.wav
Пиковый уровень 96.6 %
Скорость извлечения 1.4 X
Качество трека 100.0 %
CRC теста 35AEBF91
CRC копии 35AEBF91
Копирование... OK
Трек 6
Имя файла H:\Музыка HQ\Goat's Notes\2013 - Fuzzy Wonder\06 Landscape Architecture.wav
Пиковый уровень 96.1 %
Скорость извлечения 1.3 X
Качество трека 99.9 %
CRC теста 07281F22
CRC копии 07281F22
Копирование... OK
Трек 7
Имя файла H:\Музыка HQ\Goat's Notes\2013 - Fuzzy Wonder\07 Kitchen On Fire.wav
Пиковый уровень 61.3 %
Скорость извлечения 1.6 X
Качество трека 100.0 %
CRC теста E07B7DAC
CRC копии E07B7DAC
Копирование... OK
Трек 8
Имя файла H:\Музыка HQ\Goat's Notes\2013 - Fuzzy Wonder\08 Moses' First Desert Morning.wav
Пиковый уровень 96.2 %
Скорость извлечения 1.9 X
Качество трека 100.0 %
CRC теста 6303D36B
CRC копии 6303D36B
Копирование... OK
Трек 9
Имя файла H:\Музыка HQ\Goat's Notes\2013 - Fuzzy Wonder\09 The Fence.wav
Пиковый уровень 96.2 %
Скорость извлечения 1.9 X
Качество трека 100.0 %
CRC теста 52302791
CRC копии 52302791
Копирование... OK
Трек 10
Имя файла H:\Музыка HQ\Goat's Notes\2013 - Fuzzy Wonder\10 Elegy.wav
Пиковый уровень 78.5 %
Скорость извлечения 1.8 X
Качество трека 100.0 %
CRC теста 07ACE43F
CRC копии 07ACE43F
Копирование... OK
Трек 11
Имя файла H:\Музыка HQ\Goat's Notes\2013 - Fuzzy Wonder\11 Salad For The Happy Ones.wav
Пиковый уровень 96.3 %
Скорость извлечения 1.9 X
Качество трека 99.9 %
CRC теста 52387865
CRC копии 52387865
Копирование... OK
Трек 12
Имя файла H:\Музыка HQ\Goat's Notes\2013 - Fuzzy Wonder\12 A Crumble.wav
Пиковый уровень 90.4 %
Скорость извлечения 0.8 X
Качество трека 100.0 %
CRC теста 407B35E9
CRC копии 407B35E9
Копирование... OK
Трек 13
Имя файла H:\Музыка HQ\Goat's Notes\2013 - Fuzzy Wonder\13 Beware Of Holidays.wav
Пиковый уровень 96.2 %
Скорость извлечения 1.9 X
Качество трека 100.0 %
CRC теста C2E40AFC
CRC копии C2E40AFC
Копирование... OK
Трек 14
Имя файла H:\Музыка HQ\Goat's Notes\2013 - Fuzzy Wonder\14 Cheap Sunrise.wav
Пиковый уровень 98.0 %
Скорость извлечения 1.7 X
Качество трека 100.0 %
CRC теста 86A96011
CRC копии 86A96011
Копирование... OK
Ошибок не произошло
Конец отчёта
==== Контрольная сумма отчёта 90CC5F6CB811DAE5EB63EDD799D46154188AA5B8083E4E1F6B98D386C5E0349A ====
 
Содержание индексной карты (.CUE)
REM DATE 2013
REM DISCID C60C5C0E
REM COMMENT "ExactAudioCopy v1.0b3"
PERFORMER "Goat's Notes"
TITLE "Fuzzy Wonder"
FILE "01 Somebody In My Closet.wav" WAVE
TRACK 01 AUDIO
TITLE "Somebody In My Closet"
PERFORMER "Goat's Notes"
INDEX 01 00:00:00
FILE "02 Party Flowers.wav" WAVE
TRACK 02 AUDIO
TITLE "Party Flowers"
PERFORMER "Goat's Notes"
INDEX 01 00:00:00
FILE "03 Shy Guests From Mars.wav" WAVE
TRACK 03 AUDIO
TITLE "Shy Guests From Mars"
PERFORMER "Goat's Notes"
INDEX 01 00:00:00
FILE "04 Preface & Gentle Chimeras.wav" WAVE
TRACK 04 AUDIO
TITLE "Preface & Gentle Chimeras"
PERFORMER "Goat's Notes"
INDEX 01 00:00:00
FILE "05 Little Scene For Beckett.wav" WAVE
TRACK 05 AUDIO
TITLE "Little Scene For Beckett"
PERFORMER "Goat's Notes"
INDEX 01 00:00:00
FILE "06 Landscape Architecture.wav" WAVE
TRACK 06 AUDIO
TITLE "Landscape Architecture"
PERFORMER "Goat's Notes"
INDEX 01 00:00:00
FILE "07 Kitchen On Fire.wav" WAVE
TRACK 07 AUDIO
TITLE "Kitchen On Fire"
PERFORMER "Goat's Notes"
INDEX 01 00:00:00
FILE "08 Moses' First Desert Morning.wav" WAVE
TRACK 08 AUDIO
TITLE "Moses' First Desert Morning"
PERFORMER "Goat's Notes"
INDEX 01 00:00:00
FILE "09 The Fence.wav" WAVE
TRACK 09 AUDIO
TITLE "The Fence"
PERFORMER "Goat's Notes"
INDEX 01 00:00:00
FILE "10 Elegy.wav" WAVE
TRACK 10 AUDIO
TITLE "Elegy"
PERFORMER "Goat's Notes"
INDEX 01 00:00:00
FILE "11 Salad For The Happy Ones.wav" WAVE
TRACK 11 AUDIO
TITLE "Salad For The Happy Ones"
PERFORMER "Goat's Notes"
INDEX 01 00:00:00
FILE "12 A Crumble.wav" WAVE
TRACK 12 AUDIO
TITLE "A Crumble"
PERFORMER "Goat's Notes"
INDEX 01 00:00:00
FILE "13 Beware Of Holidays.wav" WAVE
TRACK 13 AUDIO
TITLE "Beware Of Holidays"
PERFORMER "Goat's Notes"
INDEX 01 00:00:00
FILE "14 Cheap Sunrise.wav" WAVE
TRACK 14 AUDIO
TITLE "Cheap Sunrise"
PERFORMER "Goat's Notes"
INDEX 01 00:00:00
Any questions -> support@pro-jazz.com. По всем вопросам пишите -> support@pro-jazz.com
18:37
134
Нет комментариев. Ваш будет первым!