Вы используете незарегистрированную версию компонента "Вкладки"!

Поиск

(Free Jazz, Avant-Garde, Sound Aspects) John Rapson (w/ John Fumo, Kim Richmond, Vinny Golia, Bill Hoper, Chris Symer, Alex Cline, Tom Lackner) - Bing - 1990, FLAC (tracks+.cue), lossless

(Free Jazz, Avant-Garde, Sound Aspects) John Rapson (w/ John Fumo, Kim Richmond, Vinny Golia, Bill Hoper, Chris Symer, Alex Cline, Tom Lackner) - Bing - 1990, FLAC (tracks+.cue), lossless
Треклист:
John Rapson / Bing
Жанр: Free Jazz, Avant-Garde, Sound Aspects
Страна-производитель диска: Germany
Год издания: 1990
Издатель (лейбл): Sound Aspects
Номер по каталогу: SAS CD 036
Аудиокодек: FLAC (*.flac)
Тип рипа: tracks+.cue
Битрейт аудио: lossless
Продолжительность: 51:05
Источник (релизер): Max Monteiro
Наличие сканов в содержимом раздачи: да
Треклист:
1. Bing 10:27
2. Tucking Einstein In 6:42
3. Paradox 7:43
4. Real Reality (Wayne Peet) 3:31
5. E.A.R. (Mark # 10) 5:22
6. Three Things for the Practitioner (Vinny Golia) 6:06
7. Flurry 1:58
8. A Bb Eclecticum of Monkisms (Misterioso / Brilliant Corners / Rhythm-a-Ning) (Thelonious Monk) 9:15
All music composed by John Rapson except where indicated.
Recorded January 21-22, 1989 at Master Tracks, Santa Barbara, California.
John Rapson – Trombone
John Fumo – Trumpet, Flugelhorn
Kim Richmond – Alto Saxophone, B-flat Clarinet, Flute
Vinny Golia – Baritone & Tenor Saxophones, Bass Clarinet, Alto Flute
Bill Hoper – Tuba
Chris Symer - Bass
Alex Cline – Drums, Percussion
Tom Lackner – Vibes, Drums, Percussion
 
Лог создания рипа
Exact Audio Copy V1.0 beta 3 from 29. August 2011
EAC extraction logfile from 30. September 2013, 11:55
John Rapson / Bing
Used drive : SlimtypeeNAU508 5 Adapter: 1 ID: 0
Read mode : Secure
Utilize accurate stream : Yes
Defeat audio cache : Yes
Make use of C2 pointers : No
Read offset correction : 6
Overread into Lead-In and Lead-Out : No
Fill up missing offset samples with silence : Yes
Delete leading and trailing silent blocks : No
Null samples used in CRC calculations : Yes
Used interface : Native Win32 interface for Win NT & 2000
Gap handling : Appended to previous track
Used output format : User Defined Encoder
Selected bitrate : 768 kBit/s
Quality : High
Add ID3 tag : No
Command line compressor : C:\Program Files (x86)\Exact Audio Copy\Flac\flac.exe
Additional command line options : -8 -V -T "ARTIST=%artist%" -T "TITLE=%title%" -T "ALBUM=%albumtitle%" -T "DATE=%year%" -T "TRACKNUMBER=%tracknr%" -T "GENRE=%genre%" -T "PERFORMER=%albuminterpret%" -T "COMPOSER=%composer%" %haslyrics%--tag-from-file=LYRICS="%lyricsfile%"%haslyrics% -T "ALBUMARTIST=%albumartist%" -T "DISCNUMBER=%cdnumber%" -T "TOTALDISCS=%totalcds%" -T "TOTALTRACKS=%numtracks%" -T "COMMENT=%comment%" %source% -o %dest%
TOC of the extracted CD
Track | Start | Length | Start sector | End sector
---------------------------------------------------------
1 | 0:00.33 | 10:27.35 | 33 | 47092
2 | 10:27.68 | 6:42.25 | 47093 | 77267
3 | 17:10.18 | 7:43.37 | 77268 | 112029
4 | 24:53.55 | 3:30.58 | 112030 | 127837
5 | 28:24.38 | 5:21.62 | 127838 | 151974
6 | 33:46.25 | 6:06.18 | 151975 | 179442
7 | 39:52.43 | 1:58.15 | 179443 | 188307
8 | 41:50.58 | 9:15.02 | 188308 | 229934
Track 1
Filename C:\EAC rips\01 - Bing.wav
Pre-gap length 0:00:02.33
Peak level 72.5 %
Extraction speed 1.2 X
Track quality 99.9 %
Test CRC 0831DA18
Copy CRC 0831DA18
Accurately ripped (confidence 2) [1C2F6472] (AR v2)
Copy OK
Track 2
Filename C:\EAC rips\02 - Tucking Einstein In.wav
Pre-gap length 0:00:02.63
Peak level 69.1 %
Extraction speed 1.4 X
Track quality 100.0 %
Test CRC F7CDEDFC
Copy CRC F7CDEDFC
Accurately ripped (confidence 2) [09F6B518] (AR v2)
Copy OK
Track 3
Filename C:\EAC rips\03 - Paradox.wav
Pre-gap length 0:00:03.05
Peak level 69.8 %
Extraction speed 1.5 X
Track quality 99.9 %
Test CRC 3A7EFAC6
Copy CRC 3A7EFAC6
Accurately ripped (confidence 2) [08766A27] (AR v2)
Copy OK
Track 4
Filename C:\EAC rips\04 - Real Reality.wav
Pre-gap length 0:00:02.42
Peak level 72.0 %
Extraction speed 1.6 X
Track quality 100.0 %
Test CRC 392C89A1
Copy CRC 392C89A1
Accurately ripped (confidence 2) [5B2136BA] (AR v2)
Copy OK
Track 5
Filename C:\EAC rips\05 - E.A.R. (Mark # 10).wav
Pre-gap length 0:00:03.45
Peak level 41.4 %
Extraction speed 1.8 X
Track quality 100.0 %
Test CRC F36C22BE
Copy CRC F36C22BE
Accurately ripped (confidence 2) [4A01B085] (AR v2)
Copy OK
Track 6
Filename C:\EAC rips\06 - Three Things for the Practitioner.wav
Pre-gap length 0:00:02.00
Peak level 63.0 %
Extraction speed 1.9 X
Track quality 100.0 %
Test CRC 543BB97A
Copy CRC 543BB97A
Accurately ripped (confidence 2) [D3876CB3] (AR v2)
Copy OK
Track 7
Filename C:\EAC rips\07 - Flurry.wav
Pre-gap length 0:00:03.28
Peak level 76.5 %
Extraction speed 1.3 X
Track quality 99.9 %
Test CRC A102CA6B
Copy CRC A102CA6B
Accurately ripped (confidence 2) [AFB7B918] (AR v2)
Copy OK
Track 8
Filename C:\EAC rips\08 - A Bb Eclecticum of Monkisms (Misterioso - Briliant Corners - Rhythm-a-Ning).wav
Pre-gap length 0:00:03.48
Peak level 70.3 %
Extraction speed 2.1 X
Track quality 100.0 %
Test CRC 2F84076A
Copy CRC 2F84076A
Accurately ripped (confidence 2) [8ECFBE50] (AR v2)
Copy OK
All tracks accurately ripped
No errors occurred
End of status report
---- CUETools DB Plugin V2.1.4
[CTDB TOCID: jltP3CD3q28ARB2c2UuOLu1R3M0-] disk not present in database
Submit result: La demande a été abandonnée : La demande a été annulée.
==== Log checksum 7CA7968607DE36057A4CD66E8E9A8C8A5DDF3C66CB86EB3B7A4863996213DA6B ====
 
Содержание индексной карты (.CUE)
REM GENRE Jazz
REM DATE 1990
REM DISCID 620BF908
REM COMMENT "ExactAudioCopy v1.0b3"
PERFORMER "John Rapson"
TITLE "Bing"
FILE "01 - Bing.wav" WAVE
TRACK 01 AUDIO
TITLE "Bing"
PERFORMER "John Rapson"
PREGAP 00:00:33
INDEX 01 00:00:00
TRACK 02 AUDIO
TITLE "Tucking Einstein In"
PERFORMER "John Rapson"
INDEX 00 10:24:47
FILE "02 - Tucking Einstein In.wav" WAVE
INDEX 01 00:00:00
TRACK 03 AUDIO
TITLE "Paradox"
PERFORMER "John Rapson"
INDEX 00 06:39:20
FILE "03 - Paradox.wav" WAVE
INDEX 01 00:00:00
TRACK 04 AUDIO
TITLE "Real Reality"
PERFORMER "John Rapson"
INDEX 00 07:40:70
FILE "04 - Real Reality.wav" WAVE
INDEX 01 00:00:00
TRACK 05 AUDIO
TITLE "E.A.R. (Mark # 10)"
PERFORMER "John Rapson"
INDEX 00 03:27:13
FILE "05 - E.A.R. (Mark # 10).wav" WAVE
INDEX 01 00:00:00
TRACK 06 AUDIO
TITLE "Three Things for the Practitioner"
PERFORMER "John Rapson"
INDEX 00 05:19:62
FILE "06 - Three Things for the Practitioner.wav" WAVE
INDEX 01 00:00:00
TRACK 07 AUDIO
TITLE "Flurry"
PERFORMER "John Rapson"
INDEX 00 06:02:65
FILE "07 - Flurry.wav" WAVE
INDEX 01 00:00:00
TRACK 08 AUDIO
TITLE "A Bb Eclecticum of Monkisms (Misterioso / Briliant Corners / Rhythm-a-Ning)"
PERFORMER "John Rapson"
INDEX 00 01:54:42
FILE "08 - A Bb Eclecticum of Monkisms (Misterioso - Briliant Corners - Rhythm-a-Ning).wav" WAVE
INDEX 01 00:00:00
Any questions -> support@pro-jazz.com. По всем вопросам пишите -> support@pro-jazz.com
18:36
138
Нет комментариев. Ваш будет первым!