Вы используете незарегистрированную версию компонента "Вкладки"!

Поиск

(Free Jazz) Fritz Hauser - Solodrumming {Hat Hut} - 1999, FLAC (tracks+.cue) lossless

(Free Jazz) Fritz Hauser - Solodrumming {Hat Hut} - 1999, FLAC (tracks+.cue) lossless
Треклист:
Fritz Hauser - Solodrumming {Hat Hut}
Жанр: Free Jazz
Страна-производитель диска: Switzerland
Год издания диска: 1999
Издатель (лейбл): Hat Hut Records
Номер по каталогу: hat[now]ART 129
Аудио кодек: FLAC (*.flac)
Тип рипа: tracks+.cue
Битрейт аудио: lossless
Продолжительность: 01:14:34
Источник (релизер): net (grasprelease)
Наличие сканов в содержимом раздачи: нет
Треклист:
01. Tic Tac 12:13
02. Traumbilder 9:14
03. Tutuguri 6:43
04. Klangwolke II 2:17
05. Klangwolke III 1:34
06. Klangwolke I 4:40
07. Labyrinth 13:30
08. Skizzen, Gedanken, Gesten I 2:25
09. Skizzen, Gedanken, Gesten II 1:57
10. Skizzen, Gedanken, Gesten III 0:57
11. Skizzen, Gedanken, Gesten IV 0:49
12. Skizzen, Gedanken, Gesten V 2:00
13. Der Pendler 15:00
 
Лог создания рипа (EAC Log)
Exact Audio Copy V0.99 prebeta 5 from 4. May 2009
EAC extraction logfile from 7. January 2011, 3:46
Fritz Hauser / Solodrumming (hat[now]ART 129, 1999)
Used drive : TSSTcorpDVD+-RW TS-T633A Adapter: 1 ID: 0
Read mode : Secure
Utilize accurate stream : Yes
Defeat audio cache : Yes
Make use of C2 pointers : No
Read offset correction : 6
Overread into Lead-In and Lead-Out : No
Fill up missing offset samples with silence : Yes
Delete leading and trailing silent blocks : No
Null samples used in CRC calculations : Yes
Used interface : Installed external ASPI interface
Gap handling : Appended to previous track
Used output format : User Defined Encoder
Selected bitrate : 640 kBit/s
Quality : High
Add ID3 tag : Yes
Command line compressor : C:\Program Files (x86)\Exact Audio Copy\Flac\flac.exe
Additional command line options : -6 -V -T "ARTIST=%a" -T "TITLE=%t" -T "ALBUM=%g" -T "DATE=%y" -T "TRACKNUMBER=%n" -T "GENRE=%m" -T "COMMENT=%e" %s -o %d
TOC of the extracted CD
Track | Start | Length | Start sector | End sector
---------------------------------------------------------
1 | 0:00.00 | 12:22.62 | 0 | 55711
2 | 12:22.62 | 9:28.00 | 55712 | 98311
3 | 21:50.62 | 6:55.00 | 98312 | 129436
4 | 28:45.62 | 2:21.00 | 129437 | 140011
5 | 31:06.62 | 1:35.25 | 140012 | 147161
6 | 32:42.12 | 4:49.00 | 147162 | 168836
7 | 37:31.12 | 13:36.63 | 168837 | 230099
8 | 51:08.00 | 2:32.20 | 230100 | 241519
9 | 53:40.20 | 1:59.42 | 241520 | 250486
10 | 55:39.62 | 0:59.38 | 250487 | 254949
11 | 56:39.25 | 0:52.37 | 254950 | 258886
12 | 57:31.62 | 2:03.00 | 258887 | 268111
13 | 59:34.62 | 15:00.13 | 268112 | 335624
Track 1
Filename C:\Users\K Scott Handley\Desktop\Muzik\+++ RIPS\Fritz Hauser - 1989 - Solodrumming (hat[now]ART 129, 1999)\01 - Tic Tac.wav
Pre-gap length 0:00:02.00
Peak level 97.7 %
Track quality 99.9 %
Copy CRC AE643011
Accurately ripped (confidence 4) [B0D382F6]
Copy OK
Track 2
Filename C:\Users\K Scott Handley\Desktop\Muzik\+++ RIPS\Fritz Hauser - 1989 - Solodrumming (hat[now]ART 129, 1999)\02 - Traumbilder.wav
Pre-gap length 0:00:08.82
Peak level 97.7 %
Track quality 99.9 %
Copy CRC 566182BB
Accurately ripped (confidence 4) [AFE33F81]
Copy OK
Track 3
Filename C:\Users\K Scott Handley\Desktop\Muzik\+++ RIPS\Fritz Hauser - 1989 - Solodrumming (hat[now]ART 129, 1999)\03 - Tutuguri.wav
Pre-gap length 0:00:13.82
Peak level 5.8 %
Track quality 99.9 %
Copy CRC 91C5E139
Accurately ripped (confidence 4) [9C934BD9]
Copy OK
Track 4
Filename C:\Users\K Scott Handley\Desktop\Muzik\+++ RIPS\Fritz Hauser - 1989 - Solodrumming (hat[now]ART 129, 1999)\04 - Klangwolke II.wav
Pre-gap length 0:00:11.82
Peak level 97.7 %
Track quality 99.9 %
Copy CRC 5DCB1C55
Accurately ripped (confidence 4) [8A3823B2]
Copy OK
Track 5
Filename C:\Users\K Scott Handley\Desktop\Muzik\+++ RIPS\Fritz Hauser - 1989 - Solodrumming (hat[now]ART 129, 1999)\05 - Klangwolke III.wav
Pre-gap length 0:00:03.82
Peak level 97.7 %
Track quality 100.0 %
Copy CRC 99DD084F
Accurately ripped (confidence 4) [67A93CBE]
Copy OK
Track 6
Filename C:\Users\K Scott Handley\Desktop\Muzik\+++ RIPS\Fritz Hauser - 1989 - Solodrumming (hat[now]ART 129, 1999)\06 - Klangwolke I.wav
Pre-gap length 0:00:01.16
Peak level 59.5 %
Track quality 99.8 %
Copy CRC 6D988AA5
Accurately ripped (confidence 4) [3F5A654A]
Copy OK
Track 7
Filename C:\Users\K Scott Handley\Desktop\Muzik\+++ RIPS\Fritz Hauser - 1989 - Solodrumming (hat[now]ART 129, 1999)\07 - Labyrinth.wav
Pre-gap length 0:00:08.49
Peak level 97.7 %
Track quality 99.9 %
Copy CRC 3DFE1CCF
Accurately ripped (confidence 4) [A522A7C3]
Copy OK
Track 8
Filename C:\Users\K Scott Handley\Desktop\Muzik\+++ RIPS\Fritz Hauser - 1989 - Solodrumming (hat[now]ART 129, 1999)\08 - Skizzen, Gedanken, Gesten I.wav
Pre-gap length 0:00:07.00
Peak level 43.6 %
Track quality 100.0 %
Copy CRC 20FAB720
Accurately ripped (confidence 4) [DBA2D759]
Copy OK
Track 9
Filename C:\Users\K Scott Handley\Desktop\Muzik\+++ RIPS\Fritz Hauser - 1989 - Solodrumming (hat[now]ART 129, 1999)\09 - Skizzen, Gedanken, Gesten II.wav
Pre-gap length 0:00:07.26
Peak level 21.8 %
Track quality 100.0 %
Copy CRC ECD51671
Accurately ripped (confidence 4) [8E470851]
Copy OK
Track 10
Filename C:\Users\K Scott Handley\Desktop\Muzik\+++ RIPS\Fritz Hauser - 1989 - Solodrumming (hat[now]ART 129, 1999)\10 - Skizzen, Gedanken, Gesten III.wav
Pre-gap length 0:00:02.13
Peak level 42.6 %
Track quality 99.8 %
Copy CRC D2A3242A
Accurately ripped (confidence 4) [4A40E415]
Copy OK
Track 11
Filename C:\Users\K Scott Handley\Desktop\Muzik\+++ RIPS\Fritz Hauser - 1989 - Solodrumming (hat[now]ART 129, 1999)\11 - Skizzen, Gedanken, Gesten IV.wav
Pre-gap length 0:00:02.33
Peak level 57.4 %
Track quality 100.0 %
Copy CRC 2BAC4C76
Accurately ripped (confidence 4) [67E69875]
Copy OK
Track 12
Filename C:\Users\K Scott Handley\Desktop\Muzik\+++ RIPS\Fritz Hauser - 1989 - Solodrumming (hat[now]ART 129, 1999)\12 - Skizzen, Gedanken, Gesten V.wav
Pre-gap length 0:00:03.42
Peak level 4.4 %
Track quality 99.9 %
Copy CRC ABDF180C
Accurately ripped (confidence 4) [A910FD69]
Copy OK
Track 13
Filename C:\Users\K Scott Handley\Desktop\Muzik\+++ RIPS\Fritz Hauser - 1989 - Solodrumming (hat[now]ART 129, 1999)\13 - Der Pendler.wav
Pre-gap length 0:00:03.33
Peak level 76.8 %
Track quality 99.9 %
Copy CRC 5B3451EA
Accurately ripped (confidence 4) [DDE9034D]
Copy OK
All tracks accurately ripped
No errors occurred
End of status report
 
Содержание индексной карты (.CUE)
REM GENRE Avantgarde
REM DATE 1989
REM DISCID AA117B0D
REM COMMENT "ExactAudioCopy v0.99pb5"
PERFORMER "Fritz Hauser"
TITLE "Solodrumming (hat[now]ART 129, 1999)"
FILE "Fritz Hauser - 1989 - Solodrumming (hat[now]ART 129, 1999)\01 - Tic Tac.wav" WAVE
TRACK 01 AUDIO
TITLE "Tic Tac"
PERFORMER "Fritz Hauser"
INDEX 01 00:00:00
TRACK 02 AUDIO
TITLE "Traumbilder"
PERFORMER "Fritz Hauser"
INDEX 00 12:14:00
FILE "Fritz Hauser - 1989 - Solodrumming (hat[now]ART 129, 1999)\02 - Traumbilder.wav" WAVE
INDEX 01 00:00:00
TRACK 03 AUDIO
TITLE "Tutuguri"
PERFORMER "Fritz Hauser"
INDEX 00 09:14:13
FILE "Fritz Hauser - 1989 - Solodrumming (hat[now]ART 129, 1999)\03 - Tutuguri.wav" WAVE
INDEX 01 00:00:00
TRACK 04 AUDIO
TITLE "Klangwolke II"
PERFORMER "Fritz Hauser"
INDEX 00 06:43:13
FILE "Fritz Hauser - 1989 - Solodrumming (hat[now]ART 129, 1999)\04 - Klangwolke II.wav" WAVE
INDEX 01 00:00:00
TRACK 05 AUDIO
TITLE "Klangwolke III"
PERFORMER "Fritz Hauser"
INDEX 00 02:17:13
FILE "Fritz Hauser - 1989 - Solodrumming (hat[now]ART 129, 1999)\05 - Klangwolke III.wav" WAVE
INDEX 01 00:00:00
TRACK 06 AUDIO
TITLE "Klangwolke I"
PERFORMER "Fritz Hauser"
INDEX 00 01:34:13
FILE "Fritz Hauser - 1989 - Solodrumming (hat[now]ART 129, 1999)\06 - Klangwolke I.wav" WAVE
INDEX 01 00:00:00
TRACK 07 AUDIO
TITLE "Labyrinth"
PERFORMER "Fritz Hauser"
INDEX 00 04:40:38
FILE "Fritz Hauser - 1989 - Solodrumming (hat[now]ART 129, 1999)\07 - Labyrinth.wav" WAVE
INDEX 01 00:00:00
TRACK 08 AUDIO
TITLE "Skizzen, Gedanken, Gesten I"
PERFORMER "Fritz Hauser"
INDEX 00 13:29:63
FILE "Fritz Hauser - 1989 - Solodrumming (hat[now]ART 129, 1999)\08 - Skizzen, Gedanken, Gesten I.wav" WAVE
INDEX 01 00:00:00
TRACK 09 AUDIO
TITLE "Skizzen, Gedanken, Gesten II"
PERFORMER "Fritz Hauser"
INDEX 00 02:25:00
FILE "Fritz Hauser - 1989 - Solodrumming (hat[now]ART 129, 1999)\09 - Skizzen, Gedanken, Gesten II.wav" WAVE
INDEX 01 00:00:00
TRACK 10 AUDIO
TITLE "Skizzen, Gedanken, Gesten III"
PERFORMER "Fritz Hauser"
INDEX 00 01:57:32
FILE "Fritz Hauser - 1989 - Solodrumming (hat[now]ART 129, 1999)\10 - Skizzen, Gedanken, Gesten III.wav" WAVE
INDEX 01 00:00:00
TRACK 11 AUDIO
TITLE "Skizzen, Gedanken, Gesten IV"
PERFORMER "Fritz Hauser"
INDEX 00 00:57:13
FILE "Fritz Hauser - 1989 - Solodrumming (hat[now]ART 129, 1999)\11 - Skizzen, Gedanken, Gesten IV.wav" WAVE
INDEX 01 00:00:00
TRACK 12 AUDIO
TITLE "Skizzen, Gedanken, Gesten V"
PERFORMER "Fritz Hauser"
INDEX 00 00:49:05
FILE "Fritz Hauser - 1989 - Solodrumming (hat[now]ART 129, 1999)\12 - Skizzen, Gedanken, Gesten V.wav" WAVE
INDEX 01 00:00:00
TRACK 13 AUDIO
TITLE "Der Pendler"
PERFORMER "Fritz Hauser"
INDEX 00 01:59:50
FILE "Fritz Hauser - 1989 - Solodrumming (hat[now]ART 129, 1999)\13 - Der Pendler.wav" WAVE
INDEX 01 00:00:00
 
Back
Доп. информация: Отличный альбомчиГ ... мне нравиЦЦа
 
Credits, Info etc...
Fritz Hauser - Solodrumming
(originally released as hatART 2LP 2023 in 1985, then as hatART CD 6023; reissued as hat[now]ART 129, 1999)
Credits
Artwork By [Graphic Concept] - fuhrer vienna
Drums, Xylophone, Temple Block, Maracas, Composed By, Producer - Fritz Hauser
Executive Producer - Pia & Werner X. Uehlinger
Liner Notes - Art Lange , Bernhard Strecker , Guido Bachmann
Recorded By, Mastered By - Peter Pfister
Notes
Recorded in the glass-roofed court of the Martin-Gropius-Bau (Berlin) during the nights of April 4-7, 1985. No electronic effects or overdubs were used on this 2-track digital recording.
Previously available as hatART 2023 and hatART CD 6023
Edition of 3000 CD's
"If, as John Ruskin said, architecture is frozen music, perhaps Solodrumming insinuates music as liquid architecture. The space (Martin-Gropius-Bau) in which these sounds originated influences their aural characteristics; clarity of articulation/gesture, exquisite resonance, delay, decay, ambiance, added to Hauser's crisp technique, his formal concerns, his zen conception, create new definitions of those areas we occupy in mind and body."
-- Art Lange
//
All compositions by Fritz Hauser/SUISA, published by TUHTAH Publishing/SUISA.
Recorded in the glass-roofed court of the Martin-Gropius-Bau (Berlin) during the nights of April 4-7, 1985.
No electronic effects or overdubs were used on this 2-track DIGITAL Recording.
Recording and CD-master by Peter Pfister; Graphic concept by fuhrer vienna;
Liner notes by Guido Bachmann, Art Lange & Bernhard Strecker; Produced by Fritz Hauser;
Executive Production by Pia & Werner X. Uehlinger.
Special thanks to Corina Curschellas, Bernhard Strecker and the IBA (Internationale Bauausstellung Berlin).
Fritz Hauser plays Zildjian cymbals.
This recording has been available as hatART CD 6023.
1999, Edition of 3000 CDs.
Printed by Lьdin AG, 4410 Liestal, Switzerland
//
A REVIEW FROM SOMEWHERE:
This 1985 recording featuring Swiss drummer Fritz Hauser performing in a glass-roofed court somewhere in Berlin, Germany, provides the listener with an all-inclusive glimpse of the art of solo drumming. On this release, the drummer displays his total musicality amid some sort of metaphysical, trance-like state of being to coincide with his unwavering determination and clear-sighted game plan. Hauser equips himself with drum set, xylophone, temple blocks, and maracas as he unleashes torrid flurries in concert with moments of near quietude.
Simply put, the drummer serves up a mini-clinic via his regimented patterns, monstrous tom-tom fills, and polyrhythmic frameworks. He is also adept at altering the ebb and flow while projecting notions of perhaps two drummers engaging in call and response-type dialogue. The artist pursues a series of hypnotic passages, complex ostinato motifs, and swirling cadenzas. However, drummers and percussionists alike might be more inclined to withstand over an hour's worth of rhythmic exercises. Nonetheless, Hauser sustains a great deal of interest during this noteworthy outing, which was reissued on compact disc in 1999.
Notes:
Recorded in the glass-roofed court of the Martin-Gropius-Bau (Berlin) during the nights of April 4-7, 1985. No electronic effects or overdubs were used on this 2-track digital recording.
Previously available as hatART 2023 and hatART CD 6023
Edition of 3000 CD's
По всем вопросам пишите личное сообщение пользователю M0p94ok.
07:24
226
Нет комментариев. Ваш будет первым!