Вы используете незарегистрированную версию компонента "Вкладки"!

Поиск

(free jazz, avant-garde) Pat Metheny / Ornette Coleman - Song X: Twentieth Anniversary - 2006, FLAC (tracks+.cue), lossless

Треклист:
Pat Metheny / Ornette Coleman
Song X: Twentieth Anniversary
Жанр: free jazz, avant-garde
Год выхода альбома: 1986
Год издания диска: 2006
Издатель (лейбл): Nonesuch / Metheny Group Productions
Номер по каталогу: 7559-79918-2
Аудио кодек: FLAC (*.flac)
Тип рипа: tracks+.cue
Битрейт аудио: lossless
Продолжительность: 01:06:42
Источник (релизер): avaxhome.ws (ikaqo)
Наличие сканов в содержимом раздачи: да
Треклист:
01. Police People
02. All Of Us
03. The Good Life
04. Word From Bird
05. Compute
06. The Veil
07. Song X
08. Mob Job
09. Endangered Species
10. Video Games
11. Kathelin Gray
12. Trigonometry
13. Song X Duo
14. Long Time No See
Исполнители:
Pat Metheny · (guitar, guitar synth)
Ornette Coleman · (alto saxophone, violin on 8)
Charlie Haden · (bass)
Jack DeJohnette · (drums)
Denardo Coleman · (drums, percussion)
 
Лог создания рипа
Exact Audio Copy V1.0 beta 1 from 15. November 2010
EAC extraction logfile from 2. January 2011, 8:22
Pat Metheny / Song X (Twentieth Anniversary)
Used drive : TSSTcorpCDDVDW SE-S224Q Adapter: 1 ID: 0
Read mode : Secure
Utilize accurate stream : Yes
Defeat audio cache : Yes
Make use of C2 pointers : No
Read offset correction : 6
Overread into Lead-In and Lead-Out : No
Fill up missing offset samples with silence : Yes
Delete leading and trailing silent blocks : No
Null samples used in CRC calculations : Yes
Used interface : Native Win32 interface for Win NT & 2000
Gap handling : Appended to previous track
Used output format : User Defined Encoder
Selected bitrate : 128 kBit/s
Quality : High
Add ID3 tag : No
Command line compressor : C:\Program Files\FLAC\flac.exe
Additional command line options : -8 -T "artist=%a" -T "title=%t" -T "album=%g" -T "date=%y" -T "tracknumber=%n" -T "genre=%m" %s
TOC of the extracted CD
Track | Start | Length | Start sector | End sector
---------------------------------------------------------
1 | 0:00.00 | 4:57.69 | 0 | 22343
2 | 4:57.69 | 0:15.14 | 22344 | 23482
3 | 5:13.08 | 3:25.27 | 23483 | 38884
4 | 8:38.35 | 3:48.33 | 38885 | 56017
5 | 12:26.68 | 2:03.07 | 56018 | 65249
6 | 14:30.00 | 3:42.06 | 65250 | 81905
7 | 18:12.06 | 5:34.39 | 81906 | 106994
8 | 23:46.45 | 4:11.43 | 106995 | 125862
9 | 27:58.13 | 13:18.72 | 125863 | 185784
10 | 41:17.10 | 5:20.53 | 185785 | 209837
11 | 46:37.63 | 4:13.28 | 209838 | 228840
12 | 50:51.16 | 5:05.46 | 228841 | 251761
13 | 55:56.62 | 3:07.58 | 251762 | 265844
14 | 59:04.45 | 7:38.22 | 265845 | 300216
Track 1
Filename C:\Rip\Pat Metheny - Song X (1985)\01 - Police People.wav
Pre-gap length 0:00:02.00
Peak level 88.1 %
Extraction speed 5.0 X
Track quality 100.0 %
Test CRC 53F91A28
Copy CRC 53F91A28
Accurately ripped (confidence 31) [D6B2F973]
Copy OK
Track 2
Filename C:\Rip\Pat Metheny - Song X (1985)\02 - All Of Us.wav
Peak level 96.4 %
Extraction speed 1.6 X
Track quality 100.0 %
Test CRC 95EEF4E1
Copy CRC 95EEF4E1
Accurately ripped (confidence 31) [37666DD1]
Copy OK
Track 3
Filename C:\Rip\Pat Metheny - Song X (1985)\03 - The Good Life.wav
Peak level 98.8 %
Extraction speed 5.2 X
Track quality 100.0 %
Test CRC 6E90EA96
Copy CRC 6E90EA96
Accurately ripped (confidence 31) [4682A438]
Copy OK
Track 4
Filename C:\Rip\Pat Metheny - Song X (1985)\04 - Word From Bird.wav
Peak level 98.9 %
Extraction speed 4.5 X
Track quality 99.9 %
Test CRC 77E28C8B
Copy CRC 77E28C8B
Accurately ripped (confidence 31) [E3A37FAF]
Copy OK
Track 5
Filename C:\Rip\Pat Metheny - Song X (1985)\05 - Compute.wav
Peak level 100.0 %
Extraction speed 5.3 X
Track quality 100.0 %
Test CRC 78EDF251
Copy CRC 78EDF251
Accurately ripped (confidence 31) [719E2FC7]
Copy OK
Track 6
Filename C:\Rip\Pat Metheny - Song X (1985)\06 - The Veil.wav
Peak level 98.8 %
Extraction speed 6.1 X
Track quality 100.0 %
Test CRC C7C81112
Copy CRC C7C81112
Accurately ripped (confidence 31) [E726A475]
Copy OK
Track 7
Filename C:\Rip\Pat Metheny - Song X (1985)\07 - Song X.wav
Peak level 98.8 %
Extraction speed 6.9 X
Track quality 100.0 %
Test CRC 2AE653D7
Copy CRC 2AE653D7
Accurately ripped (confidence 31) [DFE608A8]
Copy OK
Track 8
Filename C:\Rip\Pat Metheny - Song X (1985)\08 - Mob Job.wav
Peak level 98.8 %
Extraction speed 7.0 X
Track quality 100.0 %
Test CRC A1406330
Copy CRC A1406330
Accurately ripped (confidence 31) [F50F5B47]
Copy OK
Track 9
Filename C:\Rip\Pat Metheny - Song X (1985)\09 - Endangered Species.wav
Peak level 98.8 %
Extraction speed 7.7 X
Track quality 99.9 %
Test CRC 0C4CEDBF
Copy CRC 0C4CEDBF
Accurately ripped (confidence 31) [3AE1E4EB]
Copy OK
Track 10
Filename C:\Rip\Pat Metheny - Song X (1985)\10 - Video Games.wav
Peak level 98.8 %
Extraction speed 8.4 X
Track quality 100.0 %
Test CRC E4D3C26D
Copy CRC E4D3C26D
Accurately ripped (confidence 31) [8EE8DBC5]
Copy OK
Track 11
Filename C:\Rip\Pat Metheny - Song X (1985)\11 - Kathelin Gray.wav
Peak level 92.7 %
Extraction speed 6.8 X
Track quality 99.9 %
Test CRC 9E166386
Copy CRC 9E166386
Accurately ripped (confidence 31) [BA0D8F20]
Copy OK
Track 12
Filename C:\Rip\Pat Metheny - Song X (1985)\12 - Trigonometry.wav
Peak level 98.8 %
Extraction speed 8.9 X
Track quality 100.0 %
Test CRC 6545E68C
Copy CRC 6545E68C
Accurately ripped (confidence 31) [BA917644]
Copy OK
Track 13
Filename C:\Rip\Pat Metheny - Song X (1985)\13 - Song X Duo.wav
Peak level 93.0 %
Extraction speed 8.5 X
Track quality 100.0 %
Test CRC 621C3BED
Copy CRC 621C3BED
Accurately ripped (confidence 30) [CB0B1878]
Copy OK
Track 14
Filename C:\Rip\Pat Metheny - Song X (1985)\14 - Long Time No See.wav
Peak level 98.8 %
Extraction speed 9.7 X
Track quality 100.0 %
Test CRC C0F9F722
Copy CRC C0F9F722
Accurately ripped (confidence 30) [BB3A48C5]
Copy OK
All tracks accurately ripped
No errors occurred
End of status report
 
Содержание индексной карты (.cue)
REM GENRE Jazz
REM DATE 1985
REM DISCID D70FA20E
REM COMMENT "ExactAudioCopy v1.0b1"
PERFORMER "Pat Metheny"
TITLE "Song X (Twentieth Anniversary)"
FILE "01 - Police People.wav" WAVE
TRACK 01 AUDIO
TITLE "Police People"
PERFORMER "Pat Metheny"
INDEX 01 00:00:00
FILE "02 - All Of Us.wav" WAVE
TRACK 02 AUDIO
TITLE "All Of Us"
PERFORMER "Pat Metheny"
INDEX 01 00:00:00
FILE "03 - The Good Life.wav" WAVE
TRACK 03 AUDIO
TITLE "The Good Life"
PERFORMER "Pat Metheny"
INDEX 01 00:00:00
FILE "04 - Word From Bird.wav" WAVE
TRACK 04 AUDIO
TITLE "Word From Bird"
PERFORMER "Pat Metheny"
INDEX 01 00:00:00
FILE "05 - Compute.wav" WAVE
TRACK 05 AUDIO
TITLE "Compute"
PERFORMER "Pat Metheny"
INDEX 01 00:00:00
FILE "06 - The Veil.wav" WAVE
TRACK 06 AUDIO
TITLE "The Veil"
PERFORMER "Pat Metheny"
INDEX 01 00:00:00
FILE "07 - Song X.wav" WAVE
TRACK 07 AUDIO
TITLE "Song X"
PERFORMER "Pat Metheny"
INDEX 01 00:00:00
FILE "08 - Mob Job.wav" WAVE
TRACK 08 AUDIO
TITLE "Mob Job"
PERFORMER "Pat Metheny"
INDEX 01 00:00:00
FILE "09 - Endangered Species.wav" WAVE
TRACK 09 AUDIO
TITLE "Endangered Species"
PERFORMER "Pat Metheny"
INDEX 01 00:00:00
FILE "10 - Video Games.wav" WAVE
TRACK 10 AUDIO
TITLE "Video Games"
PERFORMER "Pat Metheny"
INDEX 01 00:00:00
FILE "11 - Kathelin Gray.wav" WAVE
TRACK 11 AUDIO
TITLE "Kathelin Gray"
PERFORMER "Pat Metheny"
INDEX 01 00:00:00
FILE "12 - Trigonometry.wav" WAVE
TRACK 12 AUDIO
TITLE "Trigonometry"
PERFORMER "Pat Metheny"
INDEX 01 00:00:00
FILE "13 - Song X Duo.wav" WAVE
TRACK 13 AUDIO
TITLE "Song X Duo"
PERFORMER "Pat Metheny"
INDEX 01 00:00:00
FILE "14 - Long Time No See.wav" WAVE
TRACK 14 AUDIO
TITLE "Long Time No See"
PERFORMER "Pat Metheny"
INDEX 01 00:00:00

Any questions -> support@pro-jazz.com. По всем вопросам пишите -> support@pro-jazz.com
07:24
203
Нет комментариев. Ваш будет первым!