Поиск

(Free Jazz, Free Improvisation) Weasel Walter (Henry Kaiser, Fred Lonberg-Holm, Peter Evans, Greg Kelley, Forbes Graham) - Apocalyptik Paranoia - 2009, FLAC (tracks+.cue), lossless

(Free Jazz, Free Improvisation) Weasel Walter (Henry Kaiser, Fred Lonberg-Holm, Peter Evans, Greg Kelley, Forbes Graham) - Apocalyptik Paranoia - 2009, FLAC (tracks+.cue), lossless
Треклист:
Weasel Walter / Apocalyptik Paranoia
Жанр: Free Jazz, Free Improvisation
Страна-производитель диска: США
Год издания диска: 2009
Издатель (лейбл): ugEXPLODE
Номер по каталогу: ug31
Страна: США
Аудиокодек: FLAC (*.flac)
Тип рипа: tracks+.cue
Битрейт аудио: lossless
Продолжительность: 52:13
Источник (релизер): вот.сиди (Otingocni)
Наличие сканов в содержимом раздачи: нет
Треклист:
1. Scintillations 3:44
2. Raging War 12:48
3. Still Life 2:33
4. Threnody 6:43
5. Mass Erection 3:08
6. Creaking Bones Break 9:00
7. A Synthesis of Patterns 10:05
8. Slowest Death 4:08
Recording completed on July 14, 2008 in Oakland, CA.
 
Лог создания рипа
Exact Audio Copy V1.0 beta 3 from 29. August 2011
EAC extraction logfile from 8. October 2011, 18:37
Weasel Walter / Apocalyptik Paranoia
Used drive : HL-DT-STDVDRAM GT30N Adapter: 1 ID: 0
Read mode : Secure
Utilize accurate stream : Yes
Defeat audio cache : Yes
Make use of C2 pointers : No
Read offset correction : 103
Overread into Lead-In and Lead-Out : No
Fill up missing offset samples with silence : Yes
Delete leading and trailing silent blocks : No
Null samples used in CRC calculations : Yes
Used interface : Native Win32 interface for Win NT & 2000
Gap handling : Appended to previous track
Used output format : User Defined Encoder
Selected bitrate : 1024 kBit/s
Quality : High
Add ID3 tag : No
Command line compressor : C:\Program Files (x86)\Exact Audio Copy\Flac\flac.exe
Additional command line options : -8 -V -T "ARTIST=%artist%" -T "TITLE=%title%" -T "ALBUM=%albumtitle%" -T
"DATE=%year%" -T "TRACKNUMBER=%tracknr%" -T "GENRE=%genre%" -T "PERFORMER=%albuminterpret%" -T "COMPOSER=
%composer%" %haslyrics%--tag-from-file=LYRICS="%lyricsfile%"%haslyrics% -T "ALBUMARTIST=%albumartist%" -T
"ALBUM ARTIST=%albumartist%" -T "DISCNUMBER=%cdnumber%" -T "TOTALDISCS=%totalcds%" -T "TOTALTRACKS=
%numtracks%" -T "COMMENT=%comment%" %source% -o %dest%
TOC of the extracted CD
Track | Start | Length | Start sector | End sector
---------------------------------------------------------
1 | 0:00.00 | 3:44.34 | 0 | 16833
2 | 3:44.34 | 12:48.43 | 16834 | 74476
3 | 16:33.02 | 2:33.62 | 74477 | 86013
4 | 19:06.64 | 6:43.64 | 86014 | 116302
5 | 25:50.53 | 3:08.13 | 116303 | 130415
6 | 28:58.66 | 9:00.46 | 130416 | 170961
7 | 37:59.37 | 10:05.14 | 170962 | 216350
8 | 48:04.51 | 4:08.07 | 216351 | 234957
Track 1
Filename D:\Active_Directory\EAC Rips\Weasel Walter - Apocalyptik Paranoia (2009) - FLAC\01.
Scintillations.wav
Pre-gap length 0:00:02.00
Peak level 94.4 %
Extraction speed 1.0 X
Track quality 99.9 %
Test CRC 122B9F40
Copy CRC 122B9F40
Track not present in AccurateRip database
Copy OK
Track 2
Filename D:\Active_Directory\EAC Rips\Weasel Walter - Apocalyptik Paranoia (2009) - FLAC\02. Raging
War.wav
Peak level 94.4 %
Extraction speed 1.5 X
Track quality 99.9 %
Test CRC 1521BA68
Copy CRC 1521BA68
Track not present in AccurateRip database
Copy OK
Track 3
Filename D:\Active_Directory\EAC Rips\Weasel Walter - Apocalyptik Paranoia (2009) - FLAC\03. Still
Life.wav
Peak level 94.4 %
Extraction speed 1.5 X
Track quality 100.0 %
Test CRC FC62E642
Copy CRC FC62E642
Track not present in AccurateRip database
Copy OK
Track 4
Filename D:\Active_Directory\EAC Rips\Weasel Walter - Apocalyptik Paranoia (2009) - FLAC\04.
Threnody.wav
Peak level 94.4 %
Extraction speed 1.9 X
Track quality 100.0 %
Test CRC AF89BD95
Copy CRC AF89BD95
Track not present in AccurateRip database
Copy OK
Track 5
Filename D:\Active_Directory\EAC Rips\Weasel Walter - Apocalyptik Paranoia (2009) - FLAC\05. Mass
Erection.wav
Peak level 94.4 %
Extraction speed 1.8 X
Track quality 100.0 %
Test CRC 74B5E498
Copy CRC 74B5E498
Track not present in AccurateRip database
Copy OK
Track 6
Filename D:\Active_Directory\EAC Rips\Weasel Walter - Apocalyptik Paranoia (2009) - FLAC\06. Creaking
Bones Break.wav
Peak level 94.4 %
Extraction speed 2.2 X
Track quality 100.0 %
Test CRC C0844D2A
Copy CRC C0844D2A
Track not present in AccurateRip database
Copy OK
Track 7
Filename D:\Active_Directory\EAC Rips\Weasel Walter - Apocalyptik Paranoia (2009) - FLAC\07. A
Synthesis of Patterns.wav
Peak level 94.4 %
Extraction speed 2.3 X
Track quality 99.9 %
Test CRC 91728B2C
Copy CRC 91728B2C
Track not present in AccurateRip database
Copy OK
Track 8
Filename D:\Active_Directory\EAC Rips\Weasel Walter - Apocalyptik Paranoia (2009) - FLAC\08. Slowest
Death.wav
Peak level 94.4 %
Extraction speed 2.3 X
Track quality 100.0 %
Test CRC 2F10BFA3
Copy CRC 2F10BFA3
Track not present in AccurateRip database
Copy OK
None of the tracks are present in the AccurateRip database
No errors occurred
End of status report
---- CUETools DB Plugin V2.1.3
[CTDB TOCID: rVAF35Lfdy6nQBRe4SORq3VVZAs-] disk not present in database, Submit result:
rVAF35Lfdy6nQBRe4SORq3VVZAs- has been uploaded
==== Log checksum A2139126F14DFEFE975543D3247B7154C6FC7D91F56E11F68C51D8AB14A81E27 ====
 
Содержание индексной карты (.CUE)
REM GENRE Jazz
REM DATE 2009
REM DISCID 6F0C3C08
REM COMMENT "ExactAudioCopy v1.0b3"
PERFORMER "Weasel Walter"
TITLE "Apocalyptik Paranoia"
FILE "01. Scintillations.wav" WAVE
TRACK 01 AUDIO
TITLE "Scintillations"
PERFORMER "Weasel Walter"
INDEX 01 00:00:00
FILE "02. Raging War.wav" WAVE
TRACK 02 AUDIO
TITLE "Raging War"
PERFORMER "Weasel Walter"
INDEX 01 00:00:00
FILE "03. Still Life.wav" WAVE
TRACK 03 AUDIO
TITLE "Still Life"
PERFORMER "Weasel Walter"
INDEX 01 00:00:00
FILE "04. Threnody.wav" WAVE
TRACK 04 AUDIO
TITLE "Threnody"
PERFORMER "Weasel Walter"
INDEX 01 00:00:00
FILE "05. Mass Erection.wav" WAVE
TRACK 05 AUDIO
TITLE "Mass Erection"
PERFORMER "Weasel Walter"
INDEX 01 00:00:00
FILE "06. Creaking Bones Break.wav" WAVE
TRACK 06 AUDIO
TITLE "Creaking Bones Break"
PERFORMER "Weasel Walter"
INDEX 01 00:00:00
FILE "07. A Synthesis of Patterns.wav" WAVE
TRACK 07 AUDIO
TITLE "A Synthesis of Patterns"
PERFORMER "Weasel Walter"
INDEX 01 00:00:00
FILE "08. Slowest Death.wav" WAVE
TRACK 08 AUDIO
TITLE "Slowest Death"
PERFORMER "Weasel Walter"
INDEX 01 00:00:00
 
Лог проверки качества
AUDIOCHECKER v2.0 beta (build 457) - by Dester - opdester@freemail.hu
~~~~~~~~~~~~~~~~~~~~~~~~~~~~~~~~~~
-=== DO NOT EDIT THIS FILE! ===-
Path: ...\Weasel Walter - Apocalyptik Paranoia (2009) - FLAC
1 -=- 01. Scintillations.flac -=- CDDA (99%)
2 -=- 02. Raging War.flac -=- CDDA (100%)
3 -=- 03. Still Life.flac -=- CDDA (99%)
4 -=- 04. Threnody.flac -=- CDDA (99%)
5 -=- 05. Mass Erection.flac -=- CDDA (100%)
6 -=- 06. Creaking Bones Break.flac -=- CDDA (100%)
7 -=- 07. A Synthesis of Patterns.flac -=- CDDA (100%)
8 -=- 08. Slowest Death.flac -=- CDDA (100%)
Summary 99,63% CDDA
20460788
 
Состав
Weasel Walter, drums
Henry Kaiser, guitars (1-6, 8)
Fred Lonberg-Holm, cello (2, 5, 7)
Peter Evans, trumpet (4, 6, 8)
Greg Kelley, trumpet (3, 4, 6)
Forbes Graham, trumpet (2, 7), electronics (7)
По всем вопросам пишите личное сообщение пользователю M0p94ok.
17:25
215
Нет комментариев. Ваш будет первым!