Вы используете незарегистрированную версию компонента "Вкладки"!

Поиск

(Free Improvisation, Jazz) Perlonex (Ignaz Schick, Burkhard Beins, Jorg Maria Zeger) + Charlemagne Palestine - It Ain't Necessarily So (2CDs) - 2009, FLAC (tracks+.cue), lossless

Треклист:
Perlonex + Charlemagne PalestineIt Ain't Necessarily So

Жанр: Free Improvisation
Страна-производитель диска: Germany
Год издания диска: 2009
Издатель (лейбл): Zarek
Номер по каталогу: 11/12
Аудиокодек: FLAC (*.flac)
Тип рипа: tracks+.cue
Битрейт аудио: lossless
Продолжительность: cd1 44:23; cd2 46:24;
Источник (релизер): what.cd (closer71)
Наличие сканов в содержимом раздачи: нет
Треклист:
cd1
1-1 Part One 44:22
cd2
2-1 Part Two 35:40
2-2 Part Three 10:43
 
Лог создания рипа
Exact Audio Copy V0.99 prebeta 5 from 4. May 2009
EAC extraction logfile from 16. May 2010, 0:43
Perlonex & Charlemagne Palestine / It Ain't Necessarily So
Used drive : ATAPI DVD A DH16A6L-C Adapter: 0 ID: 1
Read mode : Secure
Utilize accurate stream : Yes
Defeat audio cache : Yes
Make use of C2 pointers : No
Read offset correction : 6
Overread into Lead-In and Lead-Out : No
Fill up missing offset samples with silence : Yes
Delete leading and trailing silent blocks : No
Null samples used in CRC calculations : Yes
Used interface : Native Win32 interface for Win NT & 2000
Gap handling : Appended to previous track
Used output format : User Defined Encoder
Selected bitrate : 1024 kBit/s
Quality : High
Add ID3 tag : No
Command line compressor : C:\Program Files (x86)\Exact Audio Copy\FLAC\FLAC.EXE
Additional command line options : -8 -V -T "artist=%a" -T "title=%t" -T "album=%g" -T "date=%y" -T "tracknumber=%n" -T "genre=%m" %s
TOC of the extracted CD
Track | Start | Length | Start sector | End sector
---------------------------------------------------------
1 | 0:00.00 | 44:22.48 | 0 | 199697
Track 1
Filename C:\Users\Filippo\Desktop\Perlonex\01 - Perlonex & Charlemagne Palestine - Part One.wav
Pre-gap length 0:00:02.00
Peak level 96.6 %
Track quality 100.0 %
Test CRC D6080A1B
Copy CRC D6080A1B
Track not present in AccurateRip database
Copy OK
None of the tracks are present in the AccurateRip database
No errors occurred
End of status report
Exact Audio Copy V0.99 prebeta 5 from 4. May 2009
EAC extraction logfile from 16. May 2010, 1:53
Perlonex & Charlemagne Palestine / It Ain't Necessarily So
Used drive : ATAPI DVD A DH16A6L-C Adapter: 0 ID: 1
Read mode : Secure
Utilize accurate stream : Yes
Defeat audio cache : Yes
Make use of C2 pointers : No
Read offset correction : 6
Overread into Lead-In and Lead-Out : No
Fill up missing offset samples with silence : Yes
Delete leading and trailing silent blocks : No
Null samples used in CRC calculations : Yes
Used interface : Native Win32 interface for Win NT & 2000
Gap handling : Appended to previous track
Used output format : User Defined Encoder
Selected bitrate : 1024 kBit/s
Quality : High
Add ID3 tag : No
Command line compressor : C:\Program Files (x86)\Exact Audio Copy\FLAC\FLAC.EXE
Additional command line options : -8 -V -T "artist=%a" -T "title=%t" -T "album=%g" -T "date=%y" -T "tracknumber=%n" -T "genre=%m" %s
TOC of the extracted CD
Track | Start | Length | Start sector | End sector
---------------------------------------------------------
1 | 0:00.00 | 35:40.00 | 0 | 160499
2 | 35:40.00 | 10:43.52 | 160500 | 208776
Track 1
Filename C:\Users\Filippo\Desktop\Perlonex\CD2\01 - Perlonex & Charlemagne Palestine - Part Two.wav
Pre-gap length 0:00:02.00
Peak level 99.5 %
Track quality 100.0 %
Test CRC 2964A0F7
Copy CRC 2964A0F7
Track not present in AccurateRip database
Copy OK
Track 2
Filename C:\Users\Filippo\Desktop\Perlonex\CD2\02 - Perlonex & Charlemagne Palestine - Part Three.wav
Pre-gap length 0:00:01.49
Peak level 96.6 %
Track quality 100.0 %
Test CRC E8711E01
Copy CRC E8711E01
Track not present in AccurateRip database
Copy OK
None of the tracks are present in the AccurateRip database
No errors occurred
End of status report
 
Содержание индексной карты (.CUE)
REM DISCID 020A6601
REM COMMENT "ExactAudioCopy v0.99pb5"
PERFORMER "Perlonex & Charlemagne Palestine"
TITLE "It Ain't Necessarily So"
FILE "01 - Perlonex & Charlemagne Palestine - Part One.wav" WAVE
TRACK 01 AUDIO
TITLE "Part One"
PERFORMER "Perlonex & Charlemagne Palestine"
INDEX 01 00:00:00
REM DISCID 0B0ADF02
REM COMMENT "ExactAudioCopy v0.99pb5"
PERFORMER "Perlonex & Charlemagne Palestine"
TITLE "It Ain't Necessarily So"
FILE "01 - Perlonex & Charlemagne Palestine - Part Two.wav" WAVE
TRACK 01 AUDIO
TITLE "Part Two"
PERFORMER "Perlonex & Charlemagne Palestine"
INDEX 01 00:00:00
TRACK 02 AUDIO
TITLE "Part Three"
PERFORMER "Perlonex & Charlemagne Palestine"
INDEX 00 35:38:26
FILE "02 - Perlonex & Charlemagne Palestine - Part Three.wav" WAVE
INDEX 01 00:00:00
Доп. информация:
Recorded live at Porgy & Bess, Vienna, December 2006.
Mastered at Amann Studios, Vienna, November 2008.
 
Состав
Artwork By [Design] - &:create
Grand Piano, Vocals, Other [Cognac Glass] - Charlemagne Palestine
Guitar [Various], Other [Stomp Boxes] - Jorg Maria Zeger
Mastered By - Christoph Amann
Percussion [Selected], Other [Objects, Small Electrics] - Burkhard Beins
Recorded By - ORF-Zeitton
Turntables, Audio Generator [Tube Sine Wave], Other [Looper, Objects] - Ignaz Schick
По всем вопросам пишите личное сообщение пользователю M0p94ok.
17:24
200
Нет комментариев. Ваш будет первым!