Вы используете незарегистрированную версию компонента "Вкладки"!

Поиск

(Free Jazz, Free Improvisation) Tim Berne Bloodcount: Saturation Point - 1997, FLAC (tracks+.cue), lossless

Треклист:
Tim Berne Bloodcount: Saturation Point
Жанр: Free Jazz, Free Improvisation
Год выпуска диска: 1997
Производитель диска: USA
Label: Screwgun Records screwu 7004
Аудио кодек: FLAC
Тип рипа: tracks+.cue + Artwork
Битрейт аудио: lossless
Продолжительность: 52:54
Происхождение рипа: собственный рип с оригинального диска.
Треклист:
01. Is That a Gap? (13:17)
02. Screwgun (10:27)
03. Snow White (14:24)
04. The Opener (14:39)
All music by Tim Berne, Party Music BMI
Доп. информация:
Tim Berne - alto and baritone saxophones
Chris Speed - tenor saxophone and clarinet
Michael Formanek - double-bass
Jim Black - drums
Recorded live in 1997 in St. Louis, Missouri, USA
Engineered by the artist formerly known as the diet minister using the screwgun happy meals remote recording truck
8 million bit supermapping using state of the art /A/S/S/ technology
Mastered by David Torn at the loop pool Bearsville, NY
Covert art Steve Byram
 
EAC log
Exact Audio Copy V0.99 prebeta 5 from 4. May 2009
EAC extraction logfile from 8. August 2010, 1:03
Tim Berne - Bloodcount / Saturation Point
Used drive : HL-DT-STDVD-ROM GDR8162B Adapter: 1 ID: 1
Read mode : Secure
Utilize accurate stream : Yes
Defeat audio cache : Yes
Make use of C2 pointers : No
Read offset correction : 102
Overread into Lead-In and Lead-Out : Yes
Fill up missing offset samples with silence : Yes
Delete leading and trailing silent blocks : No
Null samples used in CRC calculations : Yes
Used interface : Installed external ASPI interface
Gap handling : Appended to previous track
Used output format : User Defined Encoder
Selected bitrate : 768 kBit/s
Quality : High
Add ID3 tag : No
Command line compressor : C:\Program Files\FLAC\flac.exe
Additional command line options : -V -8 -T "ARTIST=%a" -T "TITLE=%t" -T "ALBUM=%g" -T "TRACKNUMBER=%n" -T "GENRE=%m" %s
TOC of the extracted CD
Track | Start | Length | Start sector | End sector
---------------------------------------------------------
1 | 0:01.00 | 13:17.59 | 75 | 59908
2 | 13:18.59 | 10:26.60 | 59909 | 106918
3 | 23:45.44 | 14:24.15 | 106919 | 171733
4 | 38:09.59 | 14:38.16 | 171734 | 237599
Track 1
Filename C:\ru up\Bloodcount - Saturation Point\01 - Is That A Gap .wav
Pre-gap length 0:00:03.00
Peak level 78.5 %
Track quality 100.0 %
Test CRC C82C0603
Copy CRC C82C0603
Track not present in AccurateRip database
Copy OK
Track 2
Filename C:\ru up\Bloodcount - Saturation Point\02 - Screwgun.wav
Peak level 95.5 %
Track quality 100.0 %
Test CRC 6BFB31E7
Copy CRC 6BFB31E7
Track not present in AccurateRip database
Copy OK
Track 3
Filename C:\ru up\Bloodcount - Saturation Point\03 - Snow White.wav
Pre-gap length 0:00:01.73
Peak level 73.2 %
Track quality 100.0 %
Test CRC AD575B4A
Copy CRC AD575B4A
Track not present in AccurateRip database
Copy OK
Track 4
Filename C:\ru up\Bloodcount - Saturation Point\04 - The Opener.wav
Pre-gap length 0:00:00.66
Peak level 93.3 %
Track quality 100.0 %
Test CRC EC74987F
Copy CRC EC74987F
Track not present in AccurateRip database
Copy OK
None of the tracks are present in the AccurateRip database
No errors occurred
End of status report
 
cue
REM GENRE Avantgarde
REM DATE 1997
REM DISCID 270C5F04
REM COMMENT "ExactAudioCopy v0.99pb5"
PERFORMER "Tim Berne - Bloodcount"
TITLE "Saturation Point"
FILE "01 - Is That A Gap .wav" WAVE
TRACK 01 AUDIO
TITLE "Is That A Gap?"
PERFORMER "Tim Berne - Bloodcount"
FLAGS DCP
PREGAP 00:01:00
INDEX 01 00:00:00
FILE "02 - Screwgun.wav" WAVE
TRACK 02 AUDIO
TITLE "Screwgun"
PERFORMER "Tim Berne - Bloodcount"
FLAGS DCP
INDEX 01 00:00:00
TRACK 03 AUDIO
TITLE "Snow White"
PERFORMER "Tim Berne - Bloodcount"
FLAGS DCP
INDEX 00 10:24:62
FILE "03 - Snow White.wav" WAVE
INDEX 01 00:00:00
TRACK 04 AUDIO
TITLE "The Opener"
PERFORMER "Tim Berne - Bloodcount"
FLAGS DCP
INDEX 00 14:23:24
FILE "04 - The Opener.wav" WAVE
INDEX 01 00:00:00
Screwgun uses 100% feekill material
По всем вопросам пишите личное сообщение пользователю M0p94ok.
02:04
170
Нет комментариев. Ваш будет первым!