Вы используете незарегистрированную версию компонента "Вкладки"!

Поиск

(Free Jazz, Free Improvisation) Kent Kessler: Bull Fiddle - 2002, FLAC (tracks+.cue), lossless

Треклист:
Kent Kessler: Bull Fiddle
Жанр: Free Jazz, Free Improvisation
Год выпуска диска: 2002
Производитель диска: USA
Label: OkkaDisk OD 12038
Аудио кодек: FLAC
Тип рипа: tracks+.cue + Artwork
Битрейт аудио: lossless
Продолжительность: 46:36
Происхождение рипа: собственный рип с оригинального диска.
Треклист:
01. Monon line (02.44)
02. Spillway (01.00)
03. Batum schrag (03.34)
04. Word edgewise (01.09)
05. Sugar Creek (05.13)
06. Furthermore (01.42)
07. Waddy Peytona (03.44)
08. That is (02.49)
09. Central Wisconsin double wide (10.35)
10. Out of Iowa (05.26)
11. Gilman Chatsworth (03.19)
12. Pikeville girl (04.43)
Доп. информация:
Kent Kessler - bass
Michael Zerang - dumbek (tracks 3, 7, 11)
Recorded 6 June 2001 at Airwave Studios, Chicago by John McCortney.
Cover photograph by Joel Wanek; design by Louise Molnar.
 
EAC log
Exact Audio Copy V0.99 prebeta 5 from 4. May 2009
EAC extraction logfile from 7. August 2010, 22:13
Kent Kessler / Bull Fiddle
Used drive : HL-DT-STDVD-ROM GDR8162B Adapter: 1 ID: 1
Read mode : Secure
Utilize accurate stream : Yes
Defeat audio cache : Yes
Make use of C2 pointers : No
Read offset correction : 102
Overread into Lead-In and Lead-Out : Yes
Fill up missing offset samples with silence : Yes
Delete leading and trailing silent blocks : No
Null samples used in CRC calculations : Yes
Used interface : Installed external ASPI interface
Gap handling : Appended to previous track
Used output format : User Defined Encoder
Selected bitrate : 768 kBit/s
Quality : High
Add ID3 tag : No
Command line compressor : C:\Program Files\FLAC\flac.exe
Additional command line options : -V -8 -T "ARTIST=%a" -T "TITLE=%t" -T "ALBUM=%g" -T "TRACKNUMBER=%n" -T "GENRE=%m" %s
TOC of the extracted CD
Track | Start | Length | Start sector | End sector
---------------------------------------------------------
1 | 0:00.00 | 2:46.65 | 0 | 12514
2 | 2:46.65 | 1:00.65 | 12515 | 17079
3 | 3:47.55 | 3:34.71 | 17080 | 33200
4 | 7:22.51 | 1:10.69 | 33201 | 38519
5 | 8:33.45 | 5:17.32 | 38520 | 62326
6 | 13:51.02 | 1:47.13 | 62327 | 70364
7 | 15:38.15 | 3:48.13 | 70365 | 87477
8 | 19:26.28 | 2:53.44 | 87478 | 100496
9 | 22:19.72 | 10:40.29 | 100497 | 148525
10 | 33:00.26 | 5:28.44 | 148526 | 173169
11 | 38:28.70 | 3:24.05 | 173170 | 188474
12 | 41:53.00 | 4:43.31 | 188475 | 209730
Track 1
Filename C:\ru up\01 - Monon Line.wav
Pre-gap length 0:00:02.00
Peak level 97.4 %
Track quality 100.0 %
Test CRC CC6DBC65
Copy CRC CC6DBC65
Accurately ripped (confidence 1) [DD3B769F]
Copy OK
Track 2
Filename C:\ru up\02 - Spillway.wav
Pre-gap length 0:00:02.40
Peak level 51.0 %
Track quality 100.0 %
Test CRC 488B05B6
Copy CRC 488B05B6
Accurately ripped (confidence 1) [C27C4DDD]
Copy OK
Track 3
Filename C:\ru up\03 - Batum Schrag.wav
Pre-gap length 0:00:00.25
Peak level 95.2 %
Track quality 100.0 %
Test CRC E85BB985
Copy CRC E85BB985
Accurately ripped (confidence 1) [F370D439]
Copy OK
Track 4
Filename C:\ru up\04 - Word Edgewise.wav
Pre-gap length 0:00:00.42
Peak level 74.5 %
Track quality 100.0 %
Test CRC E1793AF8
Copy CRC E1793AF8
Accurately ripped (confidence 1) [ABC9F2DF]
Copy OK
Track 5
Filename C:\ru up\05 - Sugar Creek.wav
Pre-gap length 0:00:01.58
Peak level 97.8 %
Track quality 99.9 %
Test CRC 5ED50618
Copy CRC 5ED50618
Accurately ripped (confidence 1) [5E313151]
Copy OK
Track 6
Filename C:\ru up\06 - Furthermore.wav
Pre-gap length 0:00:03.57
Peak level 97.8 %
Track quality 100.0 %
Test CRC 86C4112F
Copy CRC 86C4112F
Accurately ripped (confidence 1) [26C8721D]
Copy OK
Track 7
Filename C:\ru up\07 - Waddy Peytona.wav
Pre-gap length 0:00:04.49
Peak level 82.2 %
Track quality 100.0 %
Test CRC C35D912B
Copy CRC C35D912B
Accurately ripped (confidence 1) [38D259B3]
Copy OK
Track 8
Filename C:\ru up\08 - That Is.wav
Pre-gap length 0:00:03.57
Peak level 95.8 %
Track quality 100.0 %
Test CRC E24A3E70
Copy CRC E24A3E70
Accurately ripped (confidence 1) [BFA636D5]
Copy OK
Track 9
Filename C:\ru up\09 - Central Wisconsin Double Wide.wav
Pre-gap length 0:00:03.66
Peak level 74.7 %
Track quality 100.0 %
Test CRC BD856FAA
Copy CRC BD856FAA
Accurately ripped (confidence 1) [C6EC8266]
Copy OK
Track 10
Filename C:\ru up\10 - Out Of Iowa.wav
Pre-gap length 0:00:04.31
Peak level 72.5 %
Track quality 100.0 %
Test CRC 14ABE0F8
Copy CRC 14ABE0F8
Accurately ripped (confidence 1) [4EB4CD7E]
Copy OK
Track 11
Filename C:\ru up\11 - Gilman Chatsworth.wav
Pre-gap length 0:00:01.69
Peak level 97.8 %
Track quality 100.0 %
Test CRC FC676819
Copy CRC FC676819
Accurately ripped (confidence 1) [795C6FF0]
Copy OK
Track 12
Filename C:\ru up\12 - Pikeville Girl.wav
Pre-gap length 0:00:04.54
Peak level 97.4 %
Track quality 100.0 %
Test CRC 57FCEC7A
Copy CRC 57FCEC7A
Accurately ripped (confidence 1) [92B96372]
Copy OK
All tracks accurately ripped
No errors occurred
End of status report
 
cue
REM GENRE Free-Jazz
REM DATE 2002
REM DISCID 900AEC0C
REM COMMENT "ExactAudioCopy v0.99pb5"
PERFORMER "Kent Kessler"
TITLE "Bull Fiddle"
FILE "01 - Monon Line.wav" WAVE
TRACK 01 AUDIO
TITLE "Monon Line"
PERFORMER "Kent Kessler"
INDEX 01 00:00:00
TRACK 02 AUDIO
TITLE "Spillway"
PERFORMER "Kent Kessler"
INDEX 00 02:44:25
FILE "02 - Spillway.wav" WAVE
INDEX 01 00:00:00
TRACK 03 AUDIO
TITLE "Batum Schrag"
PERFORMER "Kent Kessler"
INDEX 00 01:00:40
FILE "03 - Batum Schrag.wav" WAVE
INDEX 01 00:00:00
TRACK 04 AUDIO
TITLE "Word Edgewise"
PERFORMER "Kent Kessler"
INDEX 00 03:34:29
FILE "04 - Word Edgewise.wav" WAVE
INDEX 01 00:00:00
TRACK 05 AUDIO
TITLE "Sugar Creek"
PERFORMER "Kent Kessler"
INDEX 00 01:09:11
FILE "05 - Sugar Creek.wav" WAVE
INDEX 01 00:00:00
TRACK 06 AUDIO
TITLE "Furthermore"
PERFORMER "Kent Kessler"
INDEX 00 05:13:50
FILE "06 - Furthermore.wav" WAVE
INDEX 01 00:00:00
TRACK 07 AUDIO
TITLE "Waddy Peytona"
PERFORMER "Kent Kessler"
INDEX 00 01:42:39
FILE "07 - Waddy Peytona.wav" WAVE
INDEX 01 00:00:00
TRACK 08 AUDIO
TITLE "That Is"
PERFORMER "Kent Kessler"
INDEX 00 03:44:31
FILE "08 - That Is.wav" WAVE
INDEX 01 00:00:00
TRACK 09 AUDIO
TITLE "Central Wisconsin Double Wide"
PERFORMER "Kent Kessler"
INDEX 00 02:49:53
FILE "09 - Central Wisconsin Double Wide.wav" WAVE
INDEX 01 00:00:00
TRACK 10 AUDIO
TITLE "Out Of Iowa"
PERFORMER "Kent Kessler"
INDEX 00 10:35:73
FILE "10 - Out Of Iowa.wav" WAVE
INDEX 01 00:00:00
TRACK 11 AUDIO
TITLE "Gilman Chatsworth"
PERFORMER "Kent Kessler"
INDEX 00 05:26:50
FILE "11 - Gilman Chatsworth.wav" WAVE
INDEX 01 00:00:00
TRACK 12 AUDIO
TITLE "Pikeville Girl"
PERFORMER "Kent Kessler"
INDEX 00 03:19:26
FILE "12 - Pikeville Girl.wav" WAVE
INDEX 01 00:00:00
Any questions -> support@pro-jazz.com. По всем вопросам пишите -> support@pro-jazz.com
02:03
183
Нет комментариев. Ваш будет первым!