Вы используете незарегистрированную версию компонента "Вкладки"!

Поиск

(Free Jazz, Free Improvisation) The Fred Anderson Trio - Live at the Velvet Lounge - 1999, FLAC (tracks+.cue) lossless

Треклист:
The Fred Anderson Trio - Live at the Velvet Lounge
Жанр: Free Jazz, Free Improvisation
Страна-производитель диска: USA
Год издания диска: 1999
Издатель (лейбл): Okka Disk
Номер по каталогу: OD 12023
Страна: USA
Аудио кодек: FLAC (*.flac)
Тип рипа: tracks+.cue
Битрейт аудио: lossless
Продолжительность: 1:13:55
Источник (релизер): собственный рип с оригинального диска.
Наличие сканов в содержимом раздачи: да
Треклист:
1. Straight, But Not Straight (33:17)
2. To Those Who Know (11:41)
3. Multidimensional Reality (28:54)
 
Лог создания рипа
Exact Audio Copy V0.99 prebeta 5 from 4. May 2009
EAC extraction logfile from 6. January 2011, 21:26
Fred Anderson Trio / Live at the Velvet Lounge
Used drive : TSSTcorpCDDVDW SH-S222A Adapter: 1 ID: 0
Read mode : Secure
Utilize accurate stream : Yes
Defeat audio cache : Yes
Make use of C2 pointers : No
Read offset correction : 6
Overread into Lead-In and Lead-Out : No
Fill up missing offset samples with silence : Yes
Delete leading and trailing silent blocks : No
Null samples used in CRC calculations : Yes
Used interface : Installed external ASPI interface
Gap handling : Appended to previous track
Used output format : User Defined Encoder
Selected bitrate : 768 kBit/s
Quality : High
Add ID3 tag : No
Command line compressor : C:\Tool\Compress\FLAC\flac.exe
Additional command line options : -V -8 -T "ARTIST=%a" -T "TITLE=%t" -T "ALBUM=%g" -T "TRACKNUMBER=%n" -T "GENRE=%m" %s
TOC of the extracted CD
Track | Start | Length | Start sector | End sector
---------------------------------------------------------
1 | 0:00.00 | 33:14.27 | 0 | 149576
2 | 33:14.27 | 11:39.19 | 149577 | 202020
3 | 44:53.46 | 28:55.62 | 202021 | 332207
Track 1
Filename C:\! RUTRACKER\ru up\Fred Anderson - Live at the Velvet Lounge\01 - Straight, But Not Straight.wav
Pre-gap length 0:00:02.00
Peak level 93.1 %
Track quality 99.9 %
Test CRC CF152596
Copy CRC CF152596
Cannot be verified as accurate (confidence 2) [0DE906EF], AccurateRip returned [5C773355]
Copy OK
Track 2
Filename C:\! RUTRACKER\ru up\Fred Anderson - Live at the Velvet Lounge\02 - To Those Who Know.wav
Peak level 80.0 %
Track quality 100.0 %
Test CRC B0A43EAA
Copy CRC B0A43EAA
Cannot be verified as accurate (confidence 2) [F615EA6F], AccurateRip returned [8FE02A73]
Copy OK
Track 3
Filename C:\! RUTRACKER\ru up\Fred Anderson - Live at the Velvet Lounge\03 - Multidimensional Reality.wav
Peak level 88.0 %
Track quality 100.0 %
Test CRC E1C7E03F
Copy CRC E1C7E03F
Cannot be verified as accurate (confidence 2) [5471388E], AccurateRip returned [3108973C]
Copy OK
No tracks could be verified as accurate
You may have a different pressing from the one(s) in the database
No errors occurred
End of status report
 
Содержание индексной карты (.CUE)
REM GENRE "Free Jazz"
REM DATE 1999
REM DISCID 31114D03
REM COMMENT "ExactAudioCopy v0.99pb5"
PERFORMER "Fred Anderson Trio"
TITLE "Live at the Velvet Lounge"
FILE "01 - Straight, But Not Straight.wav" WAVE
TRACK 01 AUDIO
TITLE "Straight, But Not Straight"
PERFORMER "Fred Anderson Trio"
INDEX 01 00:00:00
FILE "02 - To Those Who Know.wav" WAVE
TRACK 02 AUDIO
TITLE "To Those Who Know"
PERFORMER "Fred Anderson Trio"
INDEX 01 00:00:00
FILE "03 - Multidimensional Reality.wav" WAVE
TRACK 03 AUDIO
TITLE "Multidimensional Reality"
PERFORMER "Fred Anderson Trio"
INDEX 01 00:00:00
Доп. информация:
Recorded at the Velvet Lounge, Chicago, IL, June 1, 1998
 
Об исполнителе (группе)
Free music is usually perceived as emanating from two separate streams, American and European, with the former descended from jazz and the latter from 20th-century classical music. While the two streams often travel different courses, they flow together too often for this generalization to carry water. German bassist Peter Kowald has piloted both currents for decades; in the ’60s, his work with Peter Brotzmann and the Spontaneous Music Ensemble ignited the European improv scene, but he also came to New York in 1984 to help organize the Sound Unity Festival, a precursor of the current Vision Festival. Last year, Kowald paid another visit to these shores, and recordings have begun to turn up. He joins Chicago-based veteran tenor saxophonist Fred Anderson’s trio on Live at the Velvet Lounge. Kowald and drummer Hamid Drake stoke Anderson’s long, snaking improvisations with seething, endlessly variable rhythms.
 
Об альбоме (сборнике)
OkkaDisk continues to demonstrate that Chicago has seized the initiative in channeling energy into the creation of meaningful jazz. Importantly, it acknowledges the continuing contribution of veterans such as Joe McPhee and, in this instance, saxophonist Fred Anderson. Now 70, Anderson’s profile has remained lower than those of other founding members of the AACM, but on this set, recorded last year at the club he runs to make ends meet, his gnarly playing still grips the attention with its muscle and urgency. He flourishes in the best of company: percussionist Hamid Drake and bassist Peter Kowald. The outcome is musicianship that matters.
 
Состав
Fred Anderson — tenor saxophone
Peter Kowald — bass
Hamid Drake — percussion
Another version is already in the archive: http://rutracker.org/forum/viewtopic.php?t=3234930
По всем вопросам пишите личное сообщение пользователю M0p94ok.
07:22
178
Нет комментариев. Ваш будет первым!