Вы используете незарегистрированную версию компонента "Вкладки"!

Поиск

(Avant-Garde Jazz, Free Jazz) Sunny Murray - Sunny Murray (ESP) - 1966, APE (image+.cue) lossless

Треклист:
Sunny Murray - Sunny Murray
Жанр: Avant-Garde Jazz, Free Jazz
Страна-производитель диска: Германия
Год издания диска: 1966
Издатель (лейбл): ESP
Номер по каталогу: 1032-2
Аудио кодек: APE (*.ape)
Тип рипа: image+.cue
Битрейт аудио: lossless
Продолжительность: 40:12
Источник (релизер): barin99 (nnm)
Наличие сканов в содержимом раздачи: да
Треклист:
01. Phase 1, 2, 3, 4 (Murray) - 9:45
02. Hilariously (Murray) - 10:22
03. Angels & Devils (Graham) - 11:30
04. Giblet (Murray) - 8:35
Состав:
Jacques Coursil - trumpet
Jack Graham - alto sax
Byard Lancaster - alto sax
Sunny Murray - drums
Alan Silva - bass
 
Лог создания рипа
Exact Audio Copy V0.99 prebeta 4 from 23. January 2008
EAC extraction logfile from 9. May 2008, 12:10
Sunny Murray / Sunny Murray
Used drive : LG CD-ROM CRD-8480C Adapter: 1 ID: 0
Read mode : Secure
Utilize accurate stream : Yes
Defeat audio cache : Yes
Make use of C2 pointers : No
Read offset correction : -24
Overread into Lead-In and Lead-Out : No
Fill up missing offset samples with silence : Yes
Delete leading and trailing silent blocks : No
Null samples used in CRC calculations : No
Used interface : Native Win32 interface for Win NT & 2000
Used output format : Internal WAV Routines
Sample format : 44.100 Hz; 16 Bit; Stereo
TOC of the extracted CD
Track | Start | Length | Start sector | End sector
---------------------------------------------------------
1 | 0:00.00 | 9:45.25 | 0 | 43899
2 | 9:45.25 | 10:22.30 | 43900 | 90579
3 | 20:07.55 | 11:29.43 | 90580 | 142297
4 | 31:37.23 | 8:34.50 | 142298 | 180897
Range status and errors
Selected range
Filename D:\_\Sunny Murray - Sunny Murray.wav
Peak level 85.1 %
Range quality 100.0 %
Copy CRC 690064E4
Copy OK
No errors occurred
AccurateRip summary
Track 1 not present in database
Track 2 not present in database
Track 3 not present in database
Track 4 not present in database
None of the tracks are present in the AccurateRip database
End of status report
 
Review by Scott Yanow
Drummer Sunny Murray's second date as a leader (following by eight months an almost-unknown set for Jihad that featured Don Cherry and Albert Ayler as sidemen) finds Murray leading a high-powered free jazz quintet. Best known among the sidemen are altoist Byard Lancaster and bassist Al Silva, although second altoist Jack Graham and trumpeter Jacques Coursil also play important roles in the music. Performing lengthy versions of three Murray originals and one by Graham, the band is fairly coherent but also full of fire and chance-taking solos. In ways, this is a typical ESP free-form blowing session, and certainly will be most enjoyed by open-eared listeners.
По всем вопросам пишите личное сообщение пользователю M0p94ok.
07:22
171
Нет комментариев. Ваш будет первым!