Вы используете незарегистрированную версию компонента "Вкладки"!

Поиск

(Free Jazz, Free Improvisation) The Ex Guitars (Andy Moor, Terrie Ex) meet Ken Vandermark / Paal Nilssen-Love Duo - Lean Left: Volumes 1 & 2 - 2009, 2010, FLAC (tracks+.cue) lossless

(Free Jazz, Free Improvisation) The Ex Guitars (Andy Moor, Terrie Ex) meet Ken Vandermark / Paal Nilssen-Love Duo - Lean Left: Volumes 1 & 2 - 2009, 2010, FLAC (tracks+.cue) lossless
Треклист:
The Ex Guitars meet Ken Vandermark / Paal Nilssen-Love Duo - Lean Left: Volumes 1 & 2 Жанр: Free Jazz, Free Improvisation
Страна-производитель диска: Норвегия, Германия
Год издания диска: 2009, 2010
Издатель (лейбл): Smalltown Superjazzz
Номер по каталогу: STSJ166CD, STSJ186CD
Страна: Нидерланды, США, Норвегия
Аудио кодек: FLAC (*.flac)
Тип рипа: tracks+.cue
Битрейт аудио: lossless
Продолжительность: 1:26:09
Источник (релизер): мои пластинки
Наличие сканов в содержимом раздачи: да
Треклист:
vol. 1
1. Left Lung
2. Lean Over
3. Right Lung
4. Lean Leftover
vol. 2
1. Knuckle Cracking Party
2. Chunk of Lung
recorded on march 19, 2008 at bimhuis, amsterdam
 
Лог создания рипа
Exact Audio Copy V0.99 prebeta 5 from 4. May 2009
EAC extraction logfile from 16. December 2010, 21:05
The Ex Guitars meet Nilssen-Love/Vandermark Duo / Lean Left vol. 1
Used drive : ASUS DRW-20B1LT Adapter: 2 ID: 0
Read mode : Secure
Utilize accurate stream : Yes
Defeat audio cache : Yes
Make use of C2 pointers : No
Read offset correction : 6
Overread into Lead-In and Lead-Out : No
Fill up missing offset samples with silence : Yes
Delete leading and trailing silent blocks : No
Null samples used in CRC calculations : Yes
Used interface : Installed external ASPI interface
Gap handling : Appended to previous track
Used output format : User Defined Encoder
Selected bitrate : 768 kBit/s
Quality : High
Add ID3 tag : No
Command line compressor : C:\Program Files\Exact Audio Copy\FLAC\FLAC.EXE
Additional command line options : -8 -V -T "ARTIST=%a" -T "TITLE=%t" -T "ALBUM=%g" -T "DATE=%y" -T "TRACKNUMBER=%n" -T "GENRE=%m" -T "COMMENT=EAC FLAC -8" %s
TOC of the extracted CD
Track | Start | Length | Start sector | End sector
---------------------------------------------------------
1 | 0:00.00 | 7:56.36 | 0 | 35735
2 | 7:56.36 | 4:34.23 | 35736 | 56308
3 | 12:30.59 | 27:26.16 | 56309 | 179774
4 | 39:57.00 | 3:27.70 | 179775 | 195369
Track 1
Filename H:\черновики\Lean Left vol. 1\01 - Left Lung.wav
Pre-gap length 0:00:02.00
Peak level 98.8 %
Track quality 99.9 %
Test CRC 8AAE3F7C
Copy CRC 8AAE3F7C
Accurately ripped (confidence 1) [FA391B05]
Copy OK
Track 2
Filename H:\черновики\Lean Left vol. 1\02 - Lean Over.wav
Peak level 98.8 %
Track quality 100.0 %
Test CRC 31E78915
Copy CRC 31E78915
Accurately ripped (confidence 1) [E6E94508]
Copy OK
Track 3
Filename H:\черновики\Lean Left vol. 1\03 - Right Lung.wav
Peak level 98.8 %
Track quality 100.0 %
Test CRC A033159A
Copy CRC A033159A
Accurately ripped (confidence 1) [92F39CF8]
Copy OK
Track 4
Filename H:\черновики\Lean Left vol. 1\04 - Lean Leftover.wav
Peak level 98.8 %
Track quality 100.0 %
Test CRC 9582729B
Copy CRC 9582729B
Accurately ripped (confidence 1) [53436A05]
Copy OK
All tracks accurately ripped
No errors occurred
End of status report
Exact Audio Copy V0.99 prebeta 5 from 4. May 2009
EAC extraction logfile from 16. December 2010, 21:58
The Ex Guitars meet Nilssen-Love/Vandermark Duo / Lean Left vol. 2
Used drive : ASUS DRW-20B1LT Adapter: 2 ID: 0
Read mode : Secure
Utilize accurate stream : Yes
Defeat audio cache : Yes
Make use of C2 pointers : No
Read offset correction : 6
Overread into Lead-In and Lead-Out : No
Fill up missing offset samples with silence : Yes
Delete leading and trailing silent blocks : No
Null samples used in CRC calculations : Yes
Used interface : Installed external ASPI interface
Gap handling : Appended to previous track
Used output format : User Defined Encoder
Selected bitrate : 768 kBit/s
Quality : High
Add ID3 tag : No
Command line compressor : C:\Program Files\Exact Audio Copy\FLAC\FLAC.EXE
Additional command line options : -8 -V -T "ARTIST=%a" -T "TITLE=%t" -T "ALBUM=%g" -T "DATE=%y" -T "TRACKNUMBER=%n" -T "GENRE=%m" -T "COMMENT=EAC FLAC -8" %s
TOC of the extracted CD
Track | Start | Length | Start sector | End sector
---------------------------------------------------------
1 | 0:00.00 | 12:27.37 | 0 | 56061
2 | 12:27.37 | 30:16.52 | 56062 | 192313
Track 1
Filename H:\черновики\Lean Left vol. 2\01 - Knuckle Cracking Party.wav
Pre-gap length 0:00:02.00
Peak level 98.8 %
Track quality 100.0 %
Test CRC CD887F38
Copy CRC CD887F38
Track not present in AccurateRip database
Copy OK
Track 2
Filename H:\черновики\Lean Left vol. 2\02 - Chunk of Lung.wav
Peak level 98.8 %
Track quality 100.0 %
Test CRC 246C6252
Copy CRC 246C6252
Track not present in AccurateRip database
Copy OK
None of the tracks are present in the AccurateRip database
No errors occurred
End of status report
 
Содержание индексной карты (.CUE)
REM GENRE Jazz
REM DATE 2008
REM DISCID 3A0A2C04
REM COMMENT "ExactAudioCopy v0.99pb5"
PERFORMER " The Ex Guitars meet Nilssen-Love/Vandermark Duo"
TITLE "Lean Left vol. 1"
FILE "01 - Left Lung.wav" WAVE
TRACK 01 AUDIO
TITLE "Left Lung"
PERFORMER " The Ex Guitars meet Nilssen-Love/Vandermark Duo"
INDEX 01 00:00:00
FILE "02 - Lean Over.wav" WAVE
TRACK 02 AUDIO
TITLE "Lean Over"
PERFORMER " The Ex Guitars meet Nilssen-Love/Vandermark Duo"
INDEX 01 00:00:00
FILE "03 - Right Lung.wav" WAVE
TRACK 03 AUDIO
TITLE "Right Lung"
PERFORMER " The Ex Guitars meet Nilssen-Love/Vandermark Duo"
INDEX 01 00:00:00
FILE "04 - Lean Leftover.wav" WAVE
TRACK 04 AUDIO
TITLE "Lean Leftover"
PERFORMER " The Ex Guitars meet Nilssen-Love/Vandermark Duo"
INDEX 01 00:00:00
REM DISCID 160A0402
REM COMMENT "ExactAudioCopy v0.99pb5"
PERFORMER "The Ex Guitars meet Nilssen-Love/Vandermark Duo"
TITLE "Lean Left vol. 2"
FILE "01 - Knuckle Cracking Party.wav" WAVE
TRACK 01 AUDIO
TITLE "Knuckle Cracking Party"
PERFORMER "The Ex Guitars meet Nilssen-Love/Vandermark Duo"
INDEX 01 00:00:00
FILE "02 - Chunk of Lung.wav" WAVE
TRACK 02 AUDIO
TITLE "Chunk of Lung"
PERFORMER "The Ex Guitars meet Nilssen-Love/Vandermark Duo"
INDEX 01 00:00:00
 
Состав
Andy Moor, guitar
Terrie Ex, guitar
Ken Vandermark, tenor saxophone & bb clarinet
Paal Nilssen-Love, drums
По всем вопросам пишите личное сообщение пользователю M0p94ok.
06:47
149
Нет комментариев. Ваш будет первым!