Вы используете незарегистрированную версию компонента "Вкладки"!

Поиск

(Free Improvisation) Evan Parker - Whitstable Solo - 2010, FLAC (tracks+.cue) lossless

(Free Improvisation) Evan Parker - Whitstable Solo - 2010, FLAC (tracks+.cue) lossless
Треклист:
Evan Parker / Whitstable Solo
Жанр: Free Improvisation
Страна-производитель диска: Великобритания
Год издания диска: 2010
Издатель (лейбл): psi
Номер по каталогу: psi 10.01
Страна: Великобритания
Аудио кодек: FLAC (*.flac)
Тип рипа: tracks+.cue
Битрейт аудио: lossless
Продолжительность: 1:01:41
Источник (релизер): вот.сиди (awayandanywhere)
Наличие сканов в содержимом раздачи: да
Треклист:
1. whitstable solo 1 9:38
2. whitstable solo 2 4:32
3. whitstable solo 3 6:53
4. whitstable solo 4 6:29
5. whitstable solo 5 7:55
6. whitstable solo 6 5:25
7. whitstable solo 7 5:43
8. whitstable solo α - ω 15:07
Recorded at St Peter's, Whitstable 1 July 2008
 
Лог создания рипа
Exact Audio Copy V1.0 beta 1 from 15. November 2010
EAC extraction logfile from 19. December 2010, 17:37
Evan Parker / whitstable solo
Used drive : PLEXTOR DVDR PX-860A Adapter: 0 ID: 0
Read mode : Secure
Utilize accurate stream : Yes
Defeat audio cache : Yes
Make use of C2 pointers : No
Read offset correction : 96
Overread into Lead-In and Lead-Out : No
Fill up missing offset samples with silence : Yes
Delete leading and trailing silent blocks : No
Null samples used in CRC calculations : Yes
Used interface : Native Win32 interface for Win NT & 2000
Gap handling : Appended to previous track
Used output format : User Defined Encoder
Selected bitrate : 1024 kBit/s
Quality : High
Add ID3 tag : No
Command line compressor : C:\Program Files\Exact Audio Copy\flac.exe
Additional command line options : -8 -V -T "ARTIST=%a" -T "TITLE=%t" -T "ALBUM=%g" -T "DATE=%y" -T "TRACKNUMBER=%n" -T "TOTALTRACKS=%x" -T "GENRE=%m" -T "ALBUMARTIST=%v" -T "ALBUM ARTIST=%v" -T "COMMENT=EAC V1.0 beta 1 Secure Mode, Test & Copy, AccurateRip,
TOC of the extracted CD
Track | Start | Length | Start sector | End sector
---------------------------------------------------------
1 | 0:00.00 | 9:38.24 | 0 | 43373
2 | 9:38.24 | 4:32.06 | 43374 | 63779
3 | 14:10.30 | 6:53.07 | 63780 | 94761
4 | 21:03.37 | 6:28.38 | 94762 | 123899
5 | 27:32.00 | 7:54.45 | 123900 | 159494
6 | 35:26.45 | 5:24.62 | 159495 | 183856
7 | 40:51.32 | 5:42.60 | 183857 | 209566
8 | 46:34.17 | 15:06.58 | 209567 | 277574
Track 1
Filename S:\DL\Evan Parker - whitstable solo (2010) [FLAC]\01 - whitstable solo 1.wav
Pre-gap length 0:00:02.00
Peak level 98.8 %
Extraction speed 5.1 X
Track quality 100.0 %
Test CRC 8C9B8503
Copy CRC 8C9B8503
Accurately ripped (confidence 1) [5031273F]
Copy OK
Track 2
Filename S:\DL\Evan Parker - whitstable solo (2010) [FLAC]\02 - whitstable solo 2.wav
Pre-gap length 0:00:08.24
Peak level 93.6 %
Extraction speed 5.6 X
Track quality 100.0 %
Test CRC 65E95377
Copy CRC 65E95377
Accurately ripped (confidence 1) [EB812C9D]
Copy OK
Track 3
Filename S:\DL\Evan Parker - whitstable solo (2010) [FLAC]\03 - whitstable solo 3.wav
Pre-gap length 0:00:09.30
Peak level 96.3 %
Extraction speed 5.8 X
Track quality 99.9 %
Test CRC 04930A04
Copy CRC 04930A04
Accurately ripped (confidence 1) [699E3CD9]
Copy OK
Track 4
Filename S:\DL\Evan Parker - whitstable solo (2010) [FLAC]\04 - whitstable solo 4.wav
Pre-gap length 0:00:07.50
Peak level 89.1 %
Extraction speed 6.3 X
Track quality 99.9 %
Test CRC 295FBDB1
Copy CRC 295FBDB1
Accurately ripped (confidence 1) [5D66A73E]
Copy OK
Track 5
Filename S:\DL\Evan Parker - whitstable solo (2010) [FLAC]\05 - whitstable solo 5.wav
Pre-gap length 0:00:04.53
Peak level 98.8 %
Extraction speed 7.5 X
Track quality 100.0 %
Test CRC F8C21BA7
Copy CRC F8C21BA7
Accurately ripped (confidence 1) [559C7550]
Copy OK
Track 6
Filename S:\DL\Evan Parker - whitstable solo (2010) [FLAC]\06 - whitstable solo 6.wav
Pre-gap length 0:00:06.00
Peak level 95.9 %
Extraction speed 7.6 X
Track quality 100.0 %
Test CRC C4562989
Copy CRC C4562989
Accurately ripped (confidence 1) [613E2733]
Copy OK
Track 7
Filename S:\DL\Evan Parker - whitstable solo (2010) [FLAC]\07 - whitstable solo 7.wav
Pre-gap length 0:00:06.32
Peak level 98.8 %
Extraction speed 8.1 X
Track quality 100.0 %
Test CRC EFCFC5FE
Copy CRC EFCFC5FE
Accurately ripped (confidence 1) [33816127]
Copy OK
Track 8
Filename S:\DL\Evan Parker - whitstable solo (2010) [FLAC]\08 - whitstable solo a-w.wav
Pre-gap length 0:00:15.00
Peak level 98.8 %
Extraction speed 9.0 X
Track quality 100.0 %
Test CRC 2980A475
Copy CRC 2980A475
Accurately ripped (confidence 1) [DFADEFD5]
Copy OK
All tracks accurately ripped
No errors occurred
End of status report
==== Log checksum 341738D71641A5A89429F33AFC6CC425F1640FE007A4947E900164EBBCF27AC0 ====
 
Содержание индексной карты (.CUE)
REM GENRE Jazz
REM DATE 2010
REM DISCID 6F0E7508
REM COMMENT "ExactAudioCopy v1.0b1"
PERFORMER "Evan Parker"
TITLE "whitstable solo"
FILE "01 - whitstable solo 1.wav" WAVE
TRACK 01 AUDIO
TITLE "whitstable solo 1"
PERFORMER "Evan Parker"
INDEX 01 00:00:00
TRACK 02 AUDIO
TITLE "whitstable solo 2"
PERFORMER "Evan Parker"
INDEX 00 09:30:00
FILE "02 - whitstable solo 2.wav" WAVE
INDEX 01 00:00:00
TRACK 03 AUDIO
TITLE "whitstable solo 3"
PERFORMER "Evan Parker"
INDEX 00 04:22:51
FILE "03 - whitstable solo 3.wav" WAVE
INDEX 01 00:00:00
TRACK 04 AUDIO
TITLE "whitstable solo 4"
PERFORMER "Evan Parker"
INDEX 00 06:45:32
FILE "04 - whitstable solo 4.wav" WAVE
INDEX 01 00:00:00
TRACK 05 AUDIO
TITLE "whitstable solo 5"
PERFORMER "Evan Parker"
INDEX 00 06:23:60
FILE "05 - whitstable solo 5.wav" WAVE
INDEX 01 00:00:00
TRACK 06 AUDIO
TITLE "whitstable solo 6"
PERFORMER "Evan Parker"
INDEX 00 07:48:45
FILE "06 - whitstable solo 6.wav" WAVE
INDEX 01 00:00:00
TRACK 07 AUDIO
TITLE "whitstable solo 7"
PERFORMER "Evan Parker"
INDEX 00 05:18:30
FILE "07 - whitstable solo 7.wav" WAVE
INDEX 01 00:00:00
TRACK 08 AUDIO
TITLE "whitstable solo a-w"
PERFORMER "Evan Parker"
INDEX 00 05:27:60
FILE "08 - whitstable solo a-w.wav" WAVE
INDEX 01 00:00:00
 
Лог проверки качества
AUDIOCHECKER v2.0 beta (build 457) - by Dester - opdester@freemail.hu
~~~~~~~~~~~~~~~~~~~~~~~~~~~~~~~~~~
-=== DO NOT EDIT THIS FILE! ===-
Path: ...\Evan Parker - whitstable solo - FLAC
1 -=- 01 - whitstable solo 1.flac -=- CDDA (100%)
2 -=- 02 - whitstable solo 2.flac -=- CDDA (100%)
3 -=- 03 - whitstable solo 3.flac -=- CDDA (100%)
4 -=- 04 - whitstable solo 4.flac -=- CDDA (100%)
5 -=- 05 - whitstable solo 5.flac -=- CDDA (100%)
6 -=- 06 - whitstable solo 6.flac -=- CDDA (100%)
7 -=- 07 - whitstable solo 7.flac -=- CDDA (100%)
8 -=- 08 - whitstable solo a-w.flac -=- CDDA (100%)
Summary 100,00% CDDA
214636484
 
Состав
Evan Parker - soprano saxophone
Any questions -> support@pro-jazz.com. По всем вопросам пишите -> support@pro-jazz.com
06:48
163
Нет комментариев. Ваш будет первым!