Вы используете незарегистрированную версию компонента "Вкладки"!

Поиск

(Free Jazz, Free Improvisation, Sound Aspects) Dieter Winterschladen, Reiner Krämer (Kramer), Achim Manderscheid - Unroll - 1991, FLAC (tracks+.cue), lossless

(Free Jazz, Free Improvisation, Sound Aspects) Dieter Winterschladen, Reiner Krämer (Kramer), Achim Manderscheid - Unroll - 1991, FLAC (tracks+.cue), lossless
Треклист:
Winterschladen, Krämer, Manderscheid / Unroll
Жанр: Free Jazz, Free Improvisation
Страна-производитель диска: Germany
Год издания: 1991
Издатель (лейбл): Sound Aspects
Номер по каталогу: SAS CD 043
Аудиокодек: FLAC (*.flac)
Тип рипа: tracks+.cue
Битрейт аудио: lossless
Продолжительность: 52:15
Источник (релизер): Max Monteiro
Наличие сканов в содержимом раздачи: да
Треклист:
1. Unroll 10:10
2. Ringelnuts 6:06
3. Luminaries 2:59
4. Shamrock 5:39
5. Kamel in rhythmischer Baumlandschaft 5:02
6. WKM (Reiner Winterschladen) 4:59
7. Short Work 3:52
8. One Bar Suite 10:49
9. Rolling Glas 2:41
All tunes by Winterschladen / Krämer/ Manderscheid except where indicated.
Recorded December 13, 1989 at Heartbeat Studio, Cologne.
Dieter Manderscheid – Bass, Cello
Reiner Winterschladen – Trumpet
Achim Krämer – Drums, Zither
 
Лог создания рипа
Exact Audio Copy V1.0 beta 3 from 29. August 2011
EAC extraction logfile from 16. September 2013, 14:27
Winterschladen, Krämer, Manderscheid / Unroll
Used drive : SlimtypeeNAU508 5 Adapter: 1 ID: 0
Read mode : Secure
Utilize accurate stream : Yes
Defeat audio cache : Yes
Make use of C2 pointers : No
Read offset correction : 6
Overread into Lead-In and Lead-Out : No
Fill up missing offset samples with silence : Yes
Delete leading and trailing silent blocks : No
Null samples used in CRC calculations : Yes
Used interface : Native Win32 interface for Win NT & 2000
Gap handling : Appended to previous track
Used output format : User Defined Encoder
Selected bitrate : 768 kBit/s
Quality : High
Add ID3 tag : No
Command line compressor : C:\Program Files (x86)\Exact Audio Copy\Flac\flac.exe
Additional command line options : -8 -V -T "ARTIST=%artist%" -T "TITLE=%title%" -T "ALBUM=%albumtitle%" -T "DATE=%year%" -T "TRACKNUMBER=%tracknr%" -T "GENRE=%genre%" -T "PERFORMER=%albuminterpret%" -T "COMPOSER=%composer%" %haslyrics%--tag-from-file=LYRICS="%lyricsfile%"%haslyrics% -T "ALBUMARTIST=%albumartist%" -T "DISCNUMBER=%cdnumber%" -T "TOTALDISCS=%totalcds%" -T "TOTALTRACKS=%numtracks%" -T "COMMENT=%comment%" %source% -o %dest%
TOC of the extracted CD
Track | Start | Length | Start sector | End sector
---------------------------------------------------------
1 | 0:00.32 | 10:10.03 | 32 | 45784
2 | 10:10.35 | 6:06.00 | 45785 | 73234
3 | 16:16.35 | 2:59.02 | 73235 | 86661
4 | 19:15.37 | 5:38.53 | 86662 | 112064
5 | 24:54.15 | 5:01.55 | 112065 | 134694
6 | 29:55.70 | 4:58.42 | 134695 | 157086
7 | 34:54.37 | 3:51.43 | 157087 | 174454
8 | 38:46.05 | 10:48.62 | 174455 | 223116
9 | 49:34.67 | 2:40.53 | 223117 | 235169
Track 1
Filename C:\EAC rips\01 - Unroll.wav
Pre-gap length 0:00:02.32
Peak level 77.6 %
Extraction speed 1.1 X
Track quality 99.9 %
Test CRC C9F66DB8
Copy CRC C9F66DB8
Track not present in AccurateRip database
Copy OK
Track 2
Filename C:\EAC rips\02 - Ringelnuts.wav
Pre-gap length 0:00:02.60
Peak level 72.7 %
Extraction speed 1.4 X
Track quality 100.0 %
Test CRC F5D63061
Copy CRC F5D63061
Accurately ripped (confidence 2) [89939A0B] (AR v1)
Copy OK
Track 3
Filename C:\EAC rips\03 - Luminaries.wav
Pre-gap length 0:00:02.50
Peak level 65.8 %
Extraction speed 1.4 X
Track quality 100.0 %
Test CRC 3C561769
Copy CRC 3C561769
Accurately ripped (confidence 2) [4237D2BC] (AR v1)
Copy OK
Track 4
Filename C:\EAC rips\04 - Shamrock.wav
Pre-gap length 0:00:02.20
Peak level 81.8 %
Extraction speed 1.6 X
Track quality 100.0 %
Test CRC 7BA8D1D4
Copy CRC 7BA8D1D4
Accurately ripped (confidence 2) [352C722C] (AR v1)
Copy OK
Track 5
Filename C:\EAC rips\05 - Kamel in rhythmischer Baumlandschaft.wav
Pre-gap length 0:00:02.25
Peak level 43.1 %
Extraction speed 1.7 X
Track quality 100.0 %
Test CRC E6CFC599
Copy CRC E6CFC599
Accurately ripped (confidence 2) [C5A6658B] (AR v1)
Copy OK
Track 6
Filename C:\EAC rips\06 - WKM.wav
Pre-gap length 0:00:08.20
Peak level 20.7 %
Extraction speed 1.8 X
Track quality 100.0 %
Test CRC 87B6A8D7
Copy CRC 87B6A8D7
Accurately ripped (confidence 2) [3D37B9D4] (AR v1)
Copy OK
Track 7
Filename C:\EAC rips\07 - Short Work.wav
Peak level 100.0 %
Extraction speed 1.8 X
Track quality 100.0 %
Test CRC D46147DE
Copy CRC D46147DE
Accurately ripped (confidence 2) [98D5AA17] (AR v1)
Copy OK
Track 8
Filename C:\EAC rips\08 - One Bar Suite.wav
Pre-gap length 0:00:01.03
Peak level 74.7 %
Extraction speed 2.1 X
Track quality 100.0 %
Test CRC F331A8F9
Copy CRC F331A8F9
Track not present in AccurateRip database
Copy OK
Track 9
Filename C:\EAC rips\09 - Rolling Glas.wav
Pre-gap length 0:00:05.47
Peak level 32.9 %
Extraction speed 1.6 X
Track quality 99.9 %
Test CRC 60C9E6B3
Copy CRC 60C9E6B3
Track not present in AccurateRip database
Copy OK
6 track(s) accurately ripped
3 track(s) not present in the AccurateRip database
Some tracks could not be verified as accurate
No errors occurred
End of status report
---- CUETools DB Plugin V2.1.4
[CTDB TOCID: qG4GK0egXdDm98m6JMcsrN7D1zg-] disk not present in database
Submit result: qG4GK0egXdDm98m6JMcsrN7D1zg- has been uploaded
==== Log checksum 388BA9CDB8E6B8F7B9361DEB014E2774C5880CB01B4738C282918E5F5B751EB3 ====
 
Содержание индексной карты (.CUE)
REM GENRE Jazz
REM DATE 1991
REM DISCID 950C3F09
REM COMMENT "ExactAudioCopy v1.0b3"
PERFORMER "Winterschladen, Krämer, Manderscheid"
TITLE "Unroll"
FILE "01 - Unroll.wav" WAVE
TRACK 01 AUDIO
TITLE "Unroll"
PERFORMER "Winterschladen, Krämer, Manderscheid"
PREGAP 00:00:32
INDEX 01 00:00:00
TRACK 02 AUDIO
TITLE "Ringelnuts"
PERFORMER "Winterschladen, Krämer, Manderscheid"
INDEX 00 10:07:18
FILE "02 - Ringelnuts.wav" WAVE
INDEX 01 00:00:00
TRACK 03 AUDIO
TITLE "Luminaries"
PERFORMER "Winterschladen, Krämer, Manderscheid"
INDEX 00 06:03:25
FILE "03 - Luminaries.wav" WAVE
INDEX 01 00:00:00
TRACK 04 AUDIO
TITLE "Shamrock"
PERFORMER "Winterschladen, Krämer, Manderscheid"
INDEX 00 02:56:57
FILE "04 - Shamrock.wav" WAVE
INDEX 01 00:00:00
TRACK 05 AUDIO
TITLE "Kamel in rhythmischer Baumlandschaft"
PERFORMER "Winterschladen, Krämer, Manderscheid"
INDEX 00 05:36:28
FILE "05 - Kamel in rhythmischer Baumlandschaft.wav" WAVE
INDEX 01 00:00:00
TRACK 06 AUDIO
TITLE "WKM"
PERFORMER "Winterschladen, Krämer, Manderscheid"
INDEX 00 04:53:35
FILE "06 - WKM.wav" WAVE
INDEX 01 00:00:00
FILE "07 - Short Work.wav" WAVE
TRACK 07 AUDIO
TITLE "Short Work"
PERFORMER "Winterschladen, Krämer, Manderscheid"
INDEX 01 00:00:00
TRACK 08 AUDIO
TITLE "One Bar Suite"
PERFORMER "Winterschladen, Krämer, Manderscheid"
INDEX 00 03:50:40
FILE "08 - One Bar Suite.wav" WAVE
INDEX 01 00:00:00
TRACK 09 AUDIO
TITLE "Rolling Glas"
PERFORMER "Winterschladen, Krämer, Manderscheid"
INDEX 00 10:43:15
FILE "09 - Rolling Glas.wav" WAVE
INDEX 01 00:00:00
Any questions -> support@pro-jazz.com. По всем вопросам пишите -> support@pro-jazz.com
18:24
150
Нет комментариев. Ваш будет первым!