Вы используете незарегистрированную версию компонента "Вкладки"!

Поиск

(Avant-Garde Jazz) Impression - Le benefice du doute - 2004, FLAC (tracks+.cue), lossless

(Avant-Garde Jazz) Impression - Le benefice du doute - 2004, FLAC (tracks+.cue), lossless
Треклист:
Impression - Le benefice du doute
Жанр: Avant-Garde Jazz
Страна-производитель диска: Франция
Год издания: 2004
Издатель (лейбл): Circum-Disc
Номер по каталогу: CIDI401
Аудиокодек: FLAC (*.flac)
Тип рипа: tracks+.cue
Битрейт аудио: lossless
Продолжительность: 60:01
Источник (релизер): lindinalwa (what)
Наличие сканов в содержимом раздачи: да
Треклист:
01. Deux (Orins) - 3:41
02. Realite statique (Orins) - 9:25
03. L'ombre du (Orins) - 11:10
04. Un (Orins) - 3:54
05. Circonvolues (Orins) - 4:05
06. Ca lvi noco smos (Orins) - 12:24
07. Divine vitesse (Orins) - 2:23
08. Le benefice du doute (Orins) - 6:41
09. Tribut (Orins) - 6:18
Состав:
Christian Pruvost - trumpet
Olivier Benoit - guitar
Stefan Orins - piano
Christophe Hache - bass
Peter Orins - drums
Recorded at Studio Ka, Faches-Thumesnil on June 28-30, 2003.
 
Лог создания рипа
Exact Audio Copy V0.99 prebeta 5 from 4. May 2009
EAC extraction logfile from 21. June 2011, 23:15
Impression / Le Benefice du Doute
Used drive : Optiarc DVD RW AD-7243S Adapter: 0 ID: 1
Read mode : Secure
Utilize accurate stream : Yes
Defeat audio cache : Yes
Make use of C2 pointers : No
Read offset correction : 48
Overread into Lead-In and Lead-Out : No
Fill up missing offset samples with silence : Yes
Delete leading and trailing silent blocks : No
Null samples used in CRC calculations : Yes
Used interface : Native Win32 interface for Win NT & 2000
Gap handling : Appended to previous track
Used output format : User Defined Encoder
Selected bitrate : 768 kBit/s
Quality : High
Add ID3 tag : No
Command line compressor : C:\Program Files\Exact Audio Copy\FLAC\FLAC.EXE
Additional command line options : -6 -V -T "ARTIST=%a" -T "TITLE=%t" -T "ALBUM=%g" -T "DATE=%y" -T "TRACKNUMBER=%n" -T "GENRE=%m" -T "COMMENT=%e" %s -o %d
TOC of the extracted CD
Track | Start | Length | Start sector | End sector
---------------------------------------------------------
1 | 0:00.00 | 3:41.14 | 0 | 16588
2 | 3:41.14 | 9:25.06 | 16589 | 58969
3 | 13:06.20 | 11:10.11 | 58970 | 109230
4 | 24:16.31 | 3:54.31 | 109231 | 126811
5 | 28:10.62 | 4:04.60 | 126812 | 145171
6 | 32:15.47 | 12:23.69 | 145172 | 200965
7 | 44:39.41 | 2:22.68 | 200966 | 211683
8 | 47:02.34 | 6:40.45 | 211684 | 241728
9 | 53:43.04 | 6:17.66 | 241729 | 270069
Track 1
Filename C:\Documents and Settings\S\Мои документы\Torrent раздача\01.Impression-Deux.wav
Pre-gap length 0:00:02.00
Peak level 99.0 %
Track quality 100.0 %
Test CRC 6DCD78E8
Copy CRC 6DCD78E8
Track not present in AccurateRip database
Copy OK
Track 2
Filename C:\Documents and Settings\S\Мои документы\Torrent раздача\02.Impression-Rйalitй Statique.wav
Peak level 98.7 %
Track quality 100.0 %
Test CRC 59F7771C
Copy CRC 59F7771C
Track not present in AccurateRip database
Copy OK
Track 3
Filename C:\Documents and Settings\S\Мои документы\Torrent раздача\03.Impression-L'Ombre Du.wav
Pre-gap length 0:00:00.26
Peak level 99.6 %
Track quality 100.0 %
Test CRC 1E132340
Copy CRC 1E132340
Track not present in AccurateRip database
Copy OK
Track 4
Filename C:\Documents and Settings\S\Мои документы\Torrent раздача\04.Impression-Un.wav
Pre-gap length 0:00:01.42
Peak level 93.5 %
Track quality 99.9 %
Test CRC CDACA90E
Copy CRC CDACA90E
Track not present in AccurateRip database
Copy OK
Track 5
Filename C:\Documents and Settings\S\Мои документы\Torrent раздача\05.Impression-Circonvoluйs.wav
Peak level 99.2 %
Track quality 100.0 %
Test CRC D4955DDC
Copy CRC D4955DDC
Track not present in AccurateRip database
Copy OK
Track 6
Filename C:\Documents and Settings\S\Мои документы\Torrent раздача\06.Impression-Ca Lvi Noco Smos.wav
Pre-gap length 0:00:00.24
Peak level 99.4 %
Track quality 100.0 %
Test CRC 0F4631BF
Copy CRC 0F4631BF
Track not present in AccurateRip database
Copy OK
Track 7
Filename C:\Documents and Settings\S\Мои документы\Torrent раздача\07.Impression-Divine Vitesse.wav
Peak level 98.7 %
Track quality 100.0 %
Test CRC 4E789B05
Copy CRC 4E789B05
Track not present in AccurateRip database
Copy OK
Track 8
Filename C:\Documents and Settings\S\Мои документы\Torrent раздача\08.Impression-Le Bйnйfice du Doute.wav
Pre-gap length 0:00:04.34
Peak level 99.0 %
Track quality 100.0 %
Test CRC D14A2530
Copy CRC D14A2530
Track not present in AccurateRip database
Copy OK
Track 9
Filename C:\Documents and Settings\S\Мои документы\Torrent раздача\09.Impression-Tribut.wav
Pre-gap length 0:00:01.73
Peak level 99.0 %
Track quality 99.9 %
Test CRC 0752A2B3
Copy CRC 0752A2B3
Track not present in AccurateRip database
Copy OK
None of the tracks are present in the AccurateRip database
No errors occurred
End of status report
 
Содержание индексной карты (.CUE)
REM GENRE Jazz
REM DATE 2004
REM DISCID 850E1009
REM COMMENT "ExactAudioCopy v0.99pb5"
PERFORMER "Impression"
TITLE "Le Benefice du Doute"
FILE "01 - Deux.wav" WAVE
TRACK 01 AUDIO
TITLE "Deux"
PERFORMER "Impression"
INDEX 01 00:00:00
FILE "02 - Realite statique.wav" WAVE
TRACK 02 AUDIO
TITLE "Realite statique"
PERFORMER "Impression"
INDEX 01 00:00:00
TRACK 03 AUDIO
TITLE "L'ombre du"
PERFORMER "Impression"
INDEX 00 09:24:55
FILE "03 - L'ombre du.wav" WAVE
INDEX 01 00:00:00
TRACK 04 AUDIO
TITLE "Un"
PERFORMER "Impression"
INDEX 00 11:08:44
FILE "04 - Un.wav" WAVE
INDEX 01 00:00:00
FILE "05 - Circonvolues.wav" WAVE
TRACK 05 AUDIO
TITLE "Circonvolues"
PERFORMER "Impression"
INDEX 01 00:00:00
TRACK 06 AUDIO
TITLE "Ca lvi noco smos"
PERFORMER "Impression"
INDEX 00 04:04:36
FILE "06 - Ca lvi noco smos.wav" WAVE
INDEX 01 00:00:00
FILE "07 - Divine vitesse.wav" WAVE
TRACK 07 AUDIO
TITLE "Divine vitesse"
PERFORMER "Impression"
INDEX 01 00:00:00
TRACK 08 AUDIO
TITLE "Le benefice du doute"
PERFORMER "Impression"
INDEX 00 02:18:34
FILE "08 - Le benefice du doute.wav" WAVE
INDEX 01 00:00:00
TRACK 09 AUDIO
TITLE "Tribut"
PERFORMER "Impression"
INDEX 00 06:38:47
FILE "09 - Tribut.wav" WAVE
INDEX 01 00:00:00
 
Отчет CUETools
[CUETools log; Date: 21.09.2013 19:59:46; Version: 2.1.4]
HDCD: peak extend: yes, transient filter: none, gain: none
[CTDB TOCID: hDguqdVIldjBXYVNAvPtOQyyC80-] disk not present in database.
[AccurateRip ID: 00151367-009a8cd8-850e1009] disk not present in database.
Track Peak [ CRC32 ] [W/O NULL] [ LOG ]
-- 99,6 [248584A1] [63400B3E]
01 99,0 [6DCD78E8] [A7E8D903] CRC32
02 98,7 [59F7771C] [11B77BA7] CRC32
03 99,6 [1E132340] [10389B37] CRC32
04 93,5 [CDACA90E] [6603AF20] CRC32
05 99,2 [D4955DDC] [D5646EDB] CRC32
06 99,4 [0F4631BF] [7C0F6498] CRC32
07 98,7 [4E789B05] [69A67C3E] CRC32
08 99,0 [D14A2530] [764306E3] CRC32
09 99,0 [0752A2B3] [A31F92A6] CRC32
 
Об альбоме (сборнике)
Though it was always urban, Impression’s music is now clearly oriented towards rock, while still mixing written music and improvisation. Always on the lookout for new sounds, the quintet allows for unusual uses of instruments, unexpected combinations, and limitless experiments. The influences are numerous, but always kept at a distance: we can hear echoes of Ornette Coleman, Paul Motian, Tim Berne, Steve Coleman or Jim Black… A hybrid universe, which plays on confrontations between the acoustic and the electric, where rhythm is of the essence, as well as a dynamic exchange between the band members. This music is free, contrasted, electric; it evades us, but still creates a whole world of its own, dense and eclectic.
“The ideas keep flowing, rhythmic, melodic, taking the shape of ostinatos giving birth to one another, passing from an instrument to another, superimposing one another, wandering into deceptively popular tunes, unwinding an endless melodic thread, turning to improvisation, in accordance with always renewed meters, shapes, and sound palette. Coleman disciples (those who follow both Steve and Ornette) will feel at home, but there are the undeniable influences of Tim Berne on the writing and improvisational patterns, and of John Zorn on the various slashes at instrumental orthodoxy. This is already well played and full of promises for the future. JAZZMAN (september 2004) – Franck Bergerot
Any questions -> support@pro-jazz.com. По всем вопросам пишите -> support@pro-jazz.com
18:24
125
Нет комментариев. Ваш будет первым!