Вы используете незарегистрированную версию компонента "Вкладки"!

Поиск

(Free Jazz, Free Improvisation) School Days (Ken Vandermark, Jeb Bishop, Ingebrigt Haker Flaten, Paal Nilssen-Love) - Crossing Division - 2001, FLAC (image+.cue), lossless

(Free Jazz, Free Improvisation) School Days (Ken Vandermark, Jeb Bishop, Ingebrigt Haker Flaten, Paal Nilssen-Love) - Crossing Division - 2001, FLAC (image+.cue), lossless
Треклист:
School Days / Crossing Division
Жанр: Free Jazz, Free Improvisation
Страна-производитель диска: US
Год издания диска: 2001
Издатель (лейбл): Okka Disk
Номер по каталогу: OD12037
Аудиокодек: FLAC (*.flac)
Тип рипа: image+.cue
Битрейт аудио: lossless
Продолжительность: 68:01
Источник (релизер): cd
Наличие сканов в содержимом раздачи: нет
Треклист:
1 Bookworm 9:06
2 Counteraction 7:51
3 Broad Daylight 7:22
4 Passenger 6:24
5 Rosmosis 14:11
6 Get On The Plane 8:20
7 Smoke Rings 7:24
8 Keep Your Heart Right 7:20
 
Лог создания рипа
Exact Audio Copy V1.0 beta 2 from 29. April 2011
EAC extraction logfile from 15. September 2011, 12:29
School Days / Crossing Division
Used drive : Optiarc DVD RW AD-7170A Adapter: 0 ID: 0
Read mode : Secure
Utilize accurate stream : Yes
Defeat audio cache : Yes
Make use of C2 pointers : No
Read offset correction : 48
Overread into Lead-In and Lead-Out : No
Fill up missing offset samples with silence : Yes
Delete leading and trailing silent blocks : No
Null samples used in CRC calculations : Yes
Used interface : Native Win32 interface for Win NT & 2000
Used output format : User Defined Encoder
Selected bitrate : 320 kBit/s
Quality : High
Add ID3 tag : No
Command line compressor : C:\Program Files\Exact Audio Copy\Flac\flac.exe
Additional command line options : -V -8 -T "Date=%year%" -T "Genre=%genre%" %source%
TOC of the extracted CD
Track | Start | Length | Start sector | End sector
---------------------------------------------------------
1 | 0:01.00 | 9:06.06 | 75 | 41030
2 | 9:07.06 | 7:51.41 | 41031 | 76396
3 | 16:58.47 | 7:22.02 | 76397 | 109548
4 | 24:20.49 | 6:24.21 | 109549 | 138369
5 | 30:44.70 | 14:11.43 | 138370 | 202237
6 | 44:56.38 | 8:20.39 | 202238 | 239776
7 | 53:17.02 | 7:24.64 | 239777 | 273140
8 | 60:41.66 | 7:20.15 | 273141 | 306155
Range status and errors
Selected range
Filename C:\EAC\Downloads\School Days - Crossing Division.wav
Peak level 99.5 %
Extraction speed 4.8 X
Range quality 99.9 %
Test CRC 24E30F7E
Copy CRC 24E30F7E
Copy OK
No errors occurred
AccurateRip summary
Track 1 accurately ripped (confidence 5) [519404CA] (AR v1)
Track 2 accurately ripped (confidence 5) [B16FAB6B] (AR v1)
Track 3 accurately ripped (confidence 5) [4E5FD7F8] (AR v1)
Track 4 accurately ripped (confidence 5) [B42C1343] (AR v1)
Track 5 accurately ripped (confidence 4) [30D212A7] (AR v1)
Track 6 accurately ripped (confidence 4) [BF8FA213] (AR v1)
Track 7 accurately ripped (confidence 4) [5DA4CC50] (AR v1)
Track 8 accurately ripped (confidence 5) [FEAF5103] (AR v1)
All tracks accurately ripped
End of status report
==== Log checksum 7E55AEEF3A80926C56973F8B4FDC526EB0370574C0E6AD0F10F6365D6A0482AF ====
 
Содержание индексной карты (.CUE)
REM GENRE Jazz
REM DATE 2000
REM DISCID 770FF108
REM COMMENT "ExactAudioCopy v1.0b2"
PERFORMER "School Days"
TITLE "Crossing Division"
FILE "School Days - Crossing Division.flac" WAVE
TRACK 01 AUDIO
TITLE "Bookworm"
PERFORMER "School Days"
ISRC 000000000000
INDEX 00 00:00:00
INDEX 01 00:01:00
TRACK 02 AUDIO
TITLE "Counteraction"
PERFORMER "School Days"
ISRC 000000000000
INDEX 00 09:04:41
INDEX 01 09:07:06
TRACK 03 AUDIO
TITLE "Broad Daylight"
PERFORMER "School Days"
ISRC 000000000000
INDEX 00 16:57:12
INDEX 01 16:58:47
TRACK 04 AUDIO
TITLE "Passenger"
PERFORMER "School Days"
ISRC 000000000000
INDEX 00 24:17:71
INDEX 01 24:20:49
TRACK 05 AUDIO
TITLE "Rosmosis"
PERFORMER "School Days"
ISRC 000000000000
INDEX 00 30:42:12
INDEX 01 30:44:70
TRACK 06 AUDIO
TITLE "Get On The Plane"
PERFORMER "School Days"
ISRC 000000000000
INDEX 00 44:54:19
INDEX 01 44:56:38
TRACK 07 AUDIO
TITLE "Smoke Rings"
PERFORMER "School Days"
ISRC 000000000000
INDEX 00 53:13:64
INDEX 01 53:17:02
TRACK 08 AUDIO
TITLE "Keep Your Heart Right"
PERFORMER "School Days"
ISRC 000000000000
INDEX 00 60:39:10
INDEX 01 60:41:66
Доп. информация:
Recorded on 9 and 10 March 2000 at Airwave Studios, Chicago
 
Состав
Bass – Ingebrigt Haker Flaten
Drums – Paal Nilssen-Love
Reeds – Ken Vandermark
Trombone – Jeb Bishop
Any questions -> support@pro-jazz.com. По всем вопросам пишите -> support@pro-jazz.com
16:51
163
Нет комментариев. Ваш будет первым!