Вы используете незарегистрированную версию компонента "Вкладки"!

Поиск

(Free Improvisation) Evan Parker, Steve Beresford, John Edwards, Louis Moholo - Foxes Fox - 1999, FLAC (image+.cue), lossless

(Free Improvisation) Evan Parker, Steve Beresford, John Edwards, Louis Moholo - Foxes Fox - 1999, FLAC (image+.cue), lossless
Треклист:
Evan Parker, Steve Beresford, John Edwards, Louis Moholo / Foxes Fox
Жанр: Free Improvisation
Страна-производитель диска: UK
Год издания диска: 1999
Издатель (лейбл): Emanem
Номер по каталогу: 4035
Аудиокодек: FLAC (*.flac)
Тип рипа: image+.cue
Битрейт аудио: lossless
Продолжительность: 77:38
Источник (релизер): cd
Наличие сканов в содержимом раздачи: нет
Треклист:
1 Wood On Wood 3:58
2 Amoebic Mystery 22:33
3 Running (With Scissors) 6:37
4 Bird With A Shell 11:58
5 Snail/Kite 4:20
6 Fox's Fox 3:56
7 Foxes Fox 17:17
8 Toast Sweat 3:25
9 Dog Bone D Flat 3:34
 
Лог создания рипа
Exact Audio Copy V1.0 beta 2 from 29. April 2011
EAC extraction logfile from 14. September 2011, 13:52
Evan Parker / Foxes Fox
Used drive : Optiarc DVD RW AD-7170A Adapter: 0 ID: 0
Read mode : Secure
Utilize accurate stream : Yes
Defeat audio cache : Yes
Make use of C2 pointers : No
Read offset correction : 48
Overread into Lead-In and Lead-Out : No
Fill up missing offset samples with silence : Yes
Delete leading and trailing silent blocks : No
Null samples used in CRC calculations : Yes
Used interface : Native Win32 interface for Win NT & 2000
Used output format : User Defined Encoder
Selected bitrate : 320 kBit/s
Quality : High
Add ID3 tag : No
Command line compressor : C:\Program Files\Exact Audio Copy\Flac\flac.exe
Additional command line options : -V -8 -T "Date=%year%" -T "Genre=%genre%" %source%
TOC of the extracted CD
Track | Start | Length | Start sector | End sector
---------------------------------------------------------
1 | 0:00.00 | 3:58.08 | 0 | 17857
2 | 3:58.08 | 22:33.05 | 17858 | 119337
3 | 26:31.13 | 6:36.72 | 119338 | 149109
4 | 33:08.10 | 11:57.50 | 149110 | 202934
5 | 45:05.60 | 4:20.04 | 202935 | 222438
6 | 49:25.64 | 3:55.74 | 222439 | 240137
7 | 53:21.63 | 17:16.74 | 240138 | 317911
8 | 70:38.62 | 3:25.17 | 317912 | 333303
9 | 74:04.04 | 3:34.12 | 333304 | 349365
Range status and errors
Selected range
Filename C:\EAC\Downloads\Evan Parker - Foxes Fox.wav
Peak level 100.0 %
Extraction speed 4.5 X
Range quality 99.9 %
Test CRC 6BA142D1
Copy CRC 6BA142D1
Copy OK
No errors occurred
AccurateRip summary
Track 1 accurately ripped (confidence 1) [0A5CD58A] (AR v1)
Track 2 accurately ripped (confidence 1) [8FBEB65F] (AR v1)
Track 3 accurately ripped (confidence 1) [943F6283] (AR v1)
Track 4 accurately ripped (confidence 1) [133E23B0] (AR v1)
Track 5 accurately ripped (confidence 1) [1234B73C] (AR v1)
Track 6 accurately ripped (confidence 1) [674A541D] (AR v1)
Track 7 accurately ripped (confidence 1) [A88FB208] (AR v1)
Track 8 accurately ripped (confidence 1) [001148B8] (AR v1)
Track 9 accurately ripped (confidence 1) [802551B6] (AR v1)
All tracks accurately ripped
End of status report
==== Log checksum C9FC835DFC125870664397A62A2E66B57155D801928854DDF6755EF80F1DDC71 ====
 
Содержание индексной карты (.CUE)
REM GENRE Jazz
REM DATE 1999
REM DISCID 79123209
REM COMMENT "ExactAudioCopy v1.0b2"
CATALOG 5030243403523
PERFORMER "Evan Parker"
TITLE "Foxes Fox"
FILE "Evan Parker - Foxes Fox.flac" WAVE
TRACK 01 AUDIO
TITLE "Wood On Wood"
PERFORMER "Evan Parker"
ISRC 000000000000
INDEX 01 00:00:00
TRACK 02 AUDIO
TITLE "Amoebic Mystery"
PERFORMER "Evan Parker"
ISRC 000000000000
INDEX 00 03:55:10
INDEX 01 03:58:08
INDEX 02 14:12:00
TRACK 03 AUDIO
TITLE "Running (With Scissors)"
PERFORMER "Evan Parker"
ISRC 000000000000
INDEX 00 26:28:16
INDEX 01 26:31:13
TRACK 04 AUDIO
TITLE "Bird With A Shell"
PERFORMER "Evan Parker"
ISRC 000000000000
INDEX 00 33:05:14
INDEX 01 33:08:10
TRACK 05 AUDIO
TITLE "Snail/Kite"
PERFORMER "Evan Parker"
ISRC 000000000000
INDEX 00 45:02:62
INDEX 01 45:05:60
TRACK 06 AUDIO
TITLE "Fox's Fox"
PERFORMER "Evan Parker"
ISRC 000000000000
INDEX 00 49:22:67
INDEX 01 49:25:64
TRACK 07 AUDIO
TITLE "Foxes Fox"
PERFORMER "Evan Parker"
ISRC 000000000000
INDEX 00 53:18:65
INDEX 01 53:21:63
INDEX 02 58:06:00
INDEX 03 61:24:70
INDEX 04 67:26:24
TRACK 08 AUDIO
TITLE "Toast Sweat"
PERFORMER "Evan Parker"
ISRC 000000000000
INDEX 00 70:35:64
INDEX 01 70:38:62
TRACK 09 AUDIO
TITLE "Dog Bone D Flat"
PERFORMER "Evan Parker"
ISRC 000000000000
INDEX 00 74:01:05
INDEX 01 74:04:04
Доп. информация: Digital recording and mix at London (Gateway Studios) 1999 July 21.
 
Состав
Double Bass – John Edwards
Drums, Cymbal, Timpani, Claves – Louis Moholo
Piano – Steve Beresford
Tenor Saxophone, Soprano Saxophone – Evan Parker
Any questions -> support@pro-jazz.com. По всем вопросам пишите -> support@pro-jazz.com
16:50
163
Нет комментариев. Ваш будет первым!