Вы используете незарегистрированную версию компонента "Вкладки"!

Поиск

(Free Jazz, Free Improvisation) Schlippenbach Quartet (Peter Kowald, Paul Lovens, Evan Parker) - Hunting The Snake - 1975, FLAC (tracks+.cue), lossless

(Free Jazz, Free Improvisation) Schlippenbach Quartet (Peter Kowald, Paul Lovens, Evan Parker) - Hunting The Snake - 1975, FLAC (tracks+.cue), lossless
Треклист:
Schlippenbach Quartet (Peter Kowald, Paul Lovens, Evan Parker) - Hunting The Snake
Жанр: Free Jazz, Free Improvisation
Страна-производитель диска: USA
Год записи: 1975
Год издания: 2000
Издатель (лейбл): Atavistic
Номер по каталогу: UMS/ALP213CD
Страна: Germany/USA
Аудиокодек: FLAC (*.flac)
Тип рипа: tracks+.cue
Битрейт аудио: lossless
Продолжительность: 1:17:15
Источник (релизер): собственный рип
Наличие сканов в содержимом раздачи: да
1 Glen Feshie
2 Moonbeef
3 Hunting The Snake
4 Wenn Wir Kehlkopfspieler Uns Unterhalten
Recorded September 10, 1975, Sendesaal Radio Bremen, Bremen, Germany.
 
Лог создания рипа
Exact Audio Copy V1.0 beta 3 from 29. August 2011
EAC extraction logfile from 6. November 2012, 18:39
Schlippenbach Quartet / Hunting The Snake
Used drive : HL-DT-STDVDRAM GH22NS50 Adapter: 2 ID: 0
Read mode : Secure
Utilize accurate stream : Yes
Defeat audio cache : Yes
Make use of C2 pointers : No
Read offset correction : 667
Overread into Lead-In and Lead-Out : No
Fill up missing offset samples with silence : Yes
Delete leading and trailing silent blocks : No
Null samples used in CRC calculations : Yes
Used interface : Native Win32 interface for Win NT & 2000
Gap handling : Appended to previous track
Used output format : User Defined Encoder
Selected bitrate : 128 kBit/s
Quality : High
Add ID3 tag : No
Command line compressor : C:\Program Files\Exact Audio Copy\Flac\flac.exe
Additional command line options : -V -8 -T "Date=%year%" -T "Genre=%genre%" %source%
TOC of the extracted CD
Track | Start | Length | Start sector | End sector
---------------------------------------------------------
1 | 0:00.00 | 20:15.06 | 0 | 91130
2 | 20:15.06 | 17:21.49 | 91131 | 169254
3 | 37:36.55 | 23:07.71 | 169255 | 273350
4 | 60:44.51 | 16:32.68 | 273351 | 347818
Track 1
Filename C:\Documents and Settings\Admin\Рабочий стол\Hunting The Snake\01 Glen Feshie.wav
Pre-gap length 0:00:02.00
Peak level 80.6 %
Extraction speed 1.5 X
Track quality 100.0 %
Test CRC DD9DAB45
Copy CRC DD9DAB45
Accurately ripped (confidence 1) [A0212E34] (AR v1)
Copy OK
Track 2
Filename C:\Documents and Settings\Admin\Рабочий стол\Hunting The Snake\02 Moonbeef.wav
Peak level 75.5 %
Extraction speed 2.0 X
Track quality 100.0 %
Test CRC 80B71339
Copy CRC 80B71339
Accurately ripped (confidence 1) [0BE56A70] (AR v1)
Copy OK
Track 3
Filename C:\Documents and Settings\Admin\Рабочий стол\Hunting The Snake\03 Hunting The Snake.wav
Peak level 76.1 %
Extraction speed 2.4 X
Track quality 100.0 %
Test CRC 484C617B
Copy CRC 484C617B
Accurately ripped (confidence 1) [17C70E92] (AR v1)
Copy OK
Track 4
Filename C:\Documents and Settings\Admin\Рабочий стол\Hunting The Snake\04 Wenn Wir Kehlkopfspieler Uns Unterhalten.wav
Peak level 77.6 %
Extraction speed 2.7 X
Track quality 100.0 %
Test CRC E2812AC7
Copy CRC E2812AC7
Accurately ripped (confidence 1) [ED06F7CB] (AR v1)
Copy OK
All tracks accurately ripped
No errors occurred
End of status report
==== Log checksum B3C33CF7A66405DD40901B6896C2F72FFBFCC05FA1D80441AFC3B0E7C10F28B3 ====
 
Содержание индексной карты (.CUE)
REM GENRE Avantgarde
REM DATE 2000
REM DISCID 31121D04
REM COMMENT "ExactAudioCopy v1.0b3"
PERFORMER "Schlippenbach Quartet"
TITLE "Hunting The Snake"
FILE "01 Glen Feshie.wav" WAVE
TRACK 01 AUDIO
TITLE "Glen Feshie"
PERFORMER "Schlippenbach Quartet"
FLAGS DCP
INDEX 01 00:00:00
FILE "02 Moonbeef.wav" WAVE
TRACK 02 AUDIO
TITLE "Moonbeef"
PERFORMER "Schlippenbach Quartet"
FLAGS DCP
INDEX 01 00:00:00
FILE "03 Hunting The Snake.wav" WAVE
TRACK 03 AUDIO
TITLE "Hunting The Snake"
PERFORMER "Schlippenbach Quartet"
FLAGS DCP
INDEX 01 00:00:00
FILE "04 Wenn Wir Kehlkopfspieler Uns Unterhalten.wav" WAVE
TRACK 04 AUDIO
TITLE "Wenn Wir Kehlkopfspieler Uns Unterhalten"
PERFORMER "Schlippenbach Quartet"
FLAGS DCP
INDEX 01 00:00:00
 
Об альбоме

***
The material on Hunting the Snake -- four lengthy improvisations, each in the 20-minute range -- comes from a live 1975 radio performance but was not released until 2000. It features all three members of the long-running Schlippenbach Trio (pianist Alexander von Schlippenbach, saxophonist Evan Parker, and percussionist Paul Lovens) along with Peter Kowald on bass. The music here is dense, kinetic, atonal, and often harsh, but while not easy listening, this album is not entirely remote or inaccessible, either. The group's playing is very physical and energetic, and though it is recognizably distinct from most American free jazz, the jazz roots are, at this point, still readily discernible. The real interest comes in listening to the quartet's interplay, which is less refined than on some of the Schlippenbach Trio's later work, but which has a certain ragged cohesiveness and charm of its own. Parker's scraping saxophone, Lovens' junk-pile percussion, Kowald's feverish bowing, and Schlippenbach's atonal piano clusters contribute equally to the music's flow -- there isn't a real separation of "lead" vs. "rhythm" instruments during most of the album. Occasionally, however, Parker steps out on his own and lets loose with an extended high-pitched squall, as he does on the standout title track; these abrasive solo moments are especially interesting (or hard to listen to, depending on your take). Its near-80-minute running time is exhausting, but Hunting the Snake is worth tackling in more manageable doses, as it continues to sound daring and alive more than 25 years after its creation.
by William York
***
The '70s were a banner decade for free improvisation in Europe. Much of the free jazz of today—especially recent material from the New York avant/free scene—owes huge debts to early European improvisers. Pianist Alexander von Schlippenbach made great leaps at both the compositional level and the performance level, integrating a high level of structure into a setting fully embodying musical democracy. Schlippenbach's playing per se spans the range from focused harmonic concentration to all-out glissando/clustering abandon. While the obvious comparisons to players like Cecil Taylor and Matthew Shipp may help to clarify Schlippenbach's structuralist musical vision, his approach can also be readily compared to Monk and classical composers as well.
In the company of masters like saxophonist Evan Parker, bassist Peter Kowald, and drummer Paul Lovens, Schlippenbach's music rises to a higher level. Parker constantly teeters on the brink of overblown textures and whistling overtones, building and releasing tension in coordination with the rest of the group. The unique combination of Kowald and Parker together creates a web of sound which frequently steps outside the bounds of conventional notation and enters into a range of timbre that approximates the human voice. Lovens's percussion also defies any sort of regular pattern, jumping from rhythm to rhythm with creative abandon.
Hunting the Snake, a never-before released record from a 1975 Radio Bremen session, is the only CD recording in print of the Schlippenbach quartet. For those listeners who have absorbed and appreciated the underdocumented genius of Schlippenbach in settings like his fantastic 1990 FMP trio recording Elf Bagatellen (with Parker and Lovens), this disc is a must-listen. For those curious about the free jazz innovations of the '70s, Hunting the Snake is a fine starting point. Regardless, it's great music, delivered from the heart with sensitivity and unbridled creative freedom.
By NILS JACOBSON
***
Alexander von Schlippenbach has been playing with his trio for many years now, which also contains the legendary Evan Parker on soprano and tenor sax and percussionist Paul Lovens. The rarely recorded quartet adds Peter Kowald on bass, and while they have released two LPs, Hunting the Snake is the first Schlippenbach Quartet release available on CD.
Recorded in 1975 for a German radio station, Hunting the Snake contains four long pieces that showcase the speedy improvisations of the group. It's a dense sound, with lots of action and jumping about (especially with Lovens) but at times it spreads out and the group gets into a quieter (though never mellow) connection.
Schlippenbach's piano is circular and disorienting. He plays many notes quickly but his touch is light. Even when he gets loud he remains delicate, especially when dancing around both ends of the keyboard at once. At times it sounds like Schlippenbach is directly plucking the piano strings, sounding like raindrops on glass. His communication with Lovens is remarkable.
"Moonbeef" opens with some sort of circular breathing from Parker; it sounds like two saxophones are playing at once, with a low bleating and some shrill squeaks on top of it. He builds up, using frantic flutters of notes, with Kowald alternately tapping and bowing his instrument. Either one of them can play remarkably on their own--the interplay of Parker's alien sax over Kowald's deep moans is quite unique.
Hunting the Snake is somewhat lengthy, stuffing the CD with the pieces. Sclippenbach never pulls the group anywhere that they can't handle--when working with such skilled musicians, there's a lot more room to explore. While each individual moment of the album is bright and lively, nothing is ever gratuitous.
The Unheard Music Series continues to present challenging, important music that sounds great and is nicely packaged. I've hardly bought anything that wasn't part of this series recently. Let's hope that they continue with other fine releases.
by John Fail
 
Состав
Alexander Von Schlippenbach - piano
Evan Parker - saxophones
Peter Kowald - bass
Paul Lovens - percussion
Any questions -> support@pro-jazz.com. По всем вопросам пишите -> support@pro-jazz.com
05:13
161
Нет комментариев. Ваш будет первым!