Вы используете незарегистрированную версию компонента "Вкладки"!

Поиск

(Avant-Garde Jazz, Free Improvisation) Arthur Doyle & Sunny Murray - Live at Glenn Miller Cafe - 2000, FLAC (tracks+.cue), lossless

(Avant-Garde Jazz, Free Improvisation) Arthur Doyle & Sunny Murray - Live at Glenn Miller Cafe - 2000, FLAC (tracks+.cue), lossless
Треклист:
•Arthur Doyle & Sunny Murray - Live at Glenn Miller Cafe•
Жанр: Avant-Garde Jazz, Free Improvisation
Год издания: 2000
Издатель (лейбл): Ayler Records
Номер по каталогу: aylCD-002
Аудиокодек: FLAC (*.flac)
Тип рипа: tracks+.cue
Битрейт аудио: lossless
Продолжительность: 01:06:43
Источник (релизер): Рип с диска.
Наличие сканов в содержимом раздачи: да
Треклист:
01.Spontaneous Creation, Part 1 [02:00]
02.Spontaneous Creation, Part 2 [06:36]
03.Spontaneous Creation, Part 3 [03:19]
04.African Love Call [12:32]
05.Two Free Jazz Men Speak [20:18]
06.Nature Boy [09:20]
07.Joy [12:35]
Personnel:
Arthur Doyle, tenor saxophone, flute, vocal (4-7)
Sunny Murray, drums
Bengt Frippe Nordström, alto saxophoneRecorded in concert at the Glenn Miller Café, Stockholm, Sweden on March 28, 2000.
 
Лог создания рипа
Exact Audio Copy V1.0 beta 3 from 29. August 2011
Отчёт EAC об извлечении, выполненном 4. ноября 2012, 13:12
Arthur Doyle & Sunny Murray / Live at Glenn Miller Cafe
Дисковод: Optiarc DVD RW AD-5200A Adapter: 0 ID: 0
Режим чтения : Достоверность
Использование точного потока : Да
Отключение кэша аудио : Да
Использование указателей C2 : Нет
Коррекция смещения при чтении : 48
Способность читать области Lead-in и Lead-out : Нет
Заполнение пропущенных сэмплов тишиной : Да
Удаление блоков с тишиной в начале и конце : Нет
При вычислениях CRC использовались нулевые сэмплы : Да
Интерфейс : Встроенный Win32-интерфейс для Win NT/2000
Обработка зазоров : Добавлено к предыдущему треку
Выходной формат : Пользовательский кодировщик
Выбранный битрейт : 128 kBit/s
Качество : Высокий
Добавление ID3-тега : Нет
Утилита сжатия : C:\Program Files\Exact Audio Copy\Flac\flac.exe
Дополнительные параметры : -V -8 -T "Genre=%genre%" -T "Artist=%artist%" -T "Title=%title%" -T "Album=%albumtitle%" -T "Date=%year%" -T "Tracknumber=%tracknr%" -T "Comment=%comment%" %source%
TOC извлечённого CD
Трек | Старт | Длительность | Начальный сектор | Конечный сектор
---------------------------------------------------------------------
1 | 0:00.00 | 2:00.10 | 0 | 9009
2 | 2:00.10 | 6:36.56 | 9010 | 38765
3 | 8:36.66 | 3:19.01 | 38766 | 53691
4 | 11:55.67 | 12:32.31 | 53692 | 110122
5 | 24:28.23 | 20:18.55 | 110123 | 201527
6 | 44:47.03 | 9:20.16 | 201528 | 243543
7 | 54:07.19 | 12:35.72 | 243544 | 300240
Трек 1
Имя файла F:\2000.Arthur Doyle & Sunny Murray - Live at Glenn Miller Cafe\01. Spontaneous Creation, Part 1.wav
Длина предзазора 0:00:02.00
Пиковый уровень 94.8 %
Скорость извлечения 1.6 X
Качество трека 99.9 %
CRC теста 24A1FF52
CRC копии 24A1FF52
Точное извлечение (достоверность 2) [855F20D7] (AR v1)
Копирование... OK
Трек 2
Имя файла F:\2000.Arthur Doyle & Sunny Murray - Live at Glenn Miller Cafe\02. Spontaneous Creation, Part 2.wav
Длина предзазора 0:00:02.00
Пиковый уровень 98.3 %
Скорость извлечения 2.5 X
Качество трека 99.9 %
CRC теста 660229F7
CRC копии 660229F7
Точное извлечение (достоверность 2) [A5C27D84] (AR v1)
Копирование... OK
Трек 3
Имя файла F:\2000.Arthur Doyle & Sunny Murray - Live at Glenn Miller Cafe\03. Spontaneous Creation, Part 3.wav
Длина предзазора 0:00:02.00
Пиковый уровень 98.9 %
Скорость извлечения 2.8 X
Качество трека 100.0 %
CRC теста C3B05497
CRC копии C3B05497
Точное извлечение (достоверность 2) [53FD6E05] (AR v1)
Копирование... OK
Трек 4
Имя файла F:\2000.Arthur Doyle & Sunny Murray - Live at Glenn Miller Cafe\04. African Love Call.wav
Длина предзазора 0:00:02.00
Пиковый уровень 100.0 %
Скорость извлечения 3.5 X
Качество трека 100.0 %
CRC теста E1DEFAC5
CRC копии E1DEFAC5
Точное извлечение (достоверность 2) [636C0408] (AR v1)
Копирование... OK
Трек 5
Имя файла F:\2000.Arthur Doyle & Sunny Murray - Live at Glenn Miller Cafe\05. Two Free Jazz Men Speak.wav
Длина предзазора 0:00:02.00
Пиковый уровень 100.0 %
Скорость извлечения 3.7 X
Качество трека 99.9 %
CRC теста 875AA350
CRC копии 875AA350
Точное извлечение (достоверность 2) [111DAEC2] (AR v1)
Копирование... OK
Трек 6
Имя файла F:\2000.Arthur Doyle & Sunny Murray - Live at Glenn Miller Cafe\06. Nature Boy.wav
Длина предзазора 0:00:02.00
Пиковый уровень 100.0 %
Скорость извлечения 3.8 X
Качество трека 100.0 %
CRC теста DEB5043A
CRC копии DEB5043A
Точное извлечение (достоверность 2) [8A68A13E] (AR v1)
Копирование... OK
Трек 7
Имя файла F:\2000.Arthur Doyle & Sunny Murray - Live at Glenn Miller Cafe\07. Joy.wav
Длина предзазора 0:00:02.00
Пиковый уровень 99.5 %
Скорость извлечения 3.7 X
Качество трека 99.9 %
CRC теста 29E6E647
CRC копии 29E6E647
Точное извлечение (достоверность 2) [B4BB06CB] (AR v1)
Копирование... OK
Все треки извлечены точно
Ошибок не произошло
Конец отчёта
==== Контрольная сумма отчёта 904AD06D5F008577949059CEB5990B4B61580E0B4FBEEDCB2D08DF0F97A35DE5 ====
 
Содержание индексной карты (.CUE)
REM GENRE Jazz
REM DATE 2000
REM DISCID 5B0FA307
REM COMMENT "ExactAudioCopy v1.0b3"
PERFORMER "Arthur Doyle & Sunny Murray "
TITLE "Live at Glenn Miller Cafe"
FILE "01. Spontaneous Creation, Part 1.wav" WAVE
TRACK 01 AUDIO
TITLE "Spontaneous Creation, Part 1"
PERFORMER "Arthur Doyle & Sunny Murray "
INDEX 01 00:00:00
TRACK 02 AUDIO
TITLE "Spontaneous Creation, Part 2"
PERFORMER "Arthur Doyle & Sunny Murray "
INDEX 00 01:58:10
FILE "02. Spontaneous Creation, Part 2.wav" WAVE
INDEX 01 00:00:00
TRACK 03 AUDIO
TITLE "Spontaneous Creation, Part 3"
PERFORMER "Arthur Doyle & Sunny Murray "
INDEX 00 06:34:56
FILE "03. Spontaneous Creation, Part 3.wav" WAVE
INDEX 01 00:00:00
TRACK 04 AUDIO
TITLE "African Love Call"
PERFORMER "Arthur Doyle & Sunny Murray "
INDEX 00 03:17:01
FILE "04. African Love Call.wav" WAVE
INDEX 01 00:00:00
TRACK 05 AUDIO
TITLE "Two Free Jazz Men Speak"
PERFORMER "Arthur Doyle & Sunny Murray "
INDEX 00 12:30:31
FILE "05. Two Free Jazz Men Speak.wav" WAVE
INDEX 01 00:00:00
TRACK 06 AUDIO
TITLE "Nature Boy"
PERFORMER "Arthur Doyle & Sunny Murray "
INDEX 00 20:16:55
FILE "06. Nature Boy.wav" WAVE
INDEX 01 00:00:00
TRACK 07 AUDIO
TITLE "Joy"
PERFORMER "Arthur Doyle & Sunny Murray "
INDEX 00 09:18:16
FILE "07. Joy.wav" WAVE
INDEX 01 00:00:00
Any questions -> support@pro-jazz.com. По всем вопросам пишите -> support@pro-jazz.com
05:13
200
Нет комментариев. Ваш будет первым!