Вы используете незарегистрированную версию компонента "Вкладки"!

Поиск

(Free Jazz, Free Improvisation) Peter Brotzmann, Jason Adasiewicz - Going All Fancy - 2012, FLAC (tracks+.cue), lossless

(Free Jazz, Free Improvisation) Peter Brotzmann, Jason Adasiewicz - Going All Fancy - 2012, FLAC (tracks+.cue), lossless
Треклист:
Brötzmann, Adasiewicz / Going All Fancy
Жанр: Free Jazz, Free Improvisation
Страна-производитель диска: Germany
Год издания: 2012
Издатель (лейбл): BRO
Номер по каталогу: BRO-E
Аудиокодек: FLAC (*.flac)
Тип рипа: tracks+.cue
Битрейт аудио: lossless
Продолжительность: 42:07
Источник (релизер): whatcd
Наличие сканов в содержимом раздачи: нет
Треклист:
1 Going All Fancy 9:03
2 Left Luggage 18:11
3 Singing To The Leaf 14:40
 
Лог создания рипа
Exact Audio Copy V1.0 beta 3 from 29. August 2011
EAC extraction logfile from 11. October 2012, 18:21
Peter Brötzmann and Jason Adasiewicz / Going All Fancy
Used drive : LITE-ON DVDRW LH-20A1H Adapter: 2 ID: 0
Read mode : Secure
Utilize accurate stream : Yes
Defeat audio cache : Yes
Make use of C2 pointers : No
Read offset correction : 6
Overread into Lead-In and Lead-Out : No
Fill up missing offset samples with silence : Yes
Delete leading and trailing silent blocks : No
Null samples used in CRC calculations : Yes
Used interface : Native Win32 interface for Win NT & 2000
Gap handling : Appended to previous track
Used output format : User Defined Encoder
Selected bitrate : 1024 kBit/s
Quality : High
Add ID3 tag : No
Command line compressor : C:\Program Files\Exact Audio Copy\Flac\flac.exe
Additional command line options : -8 -V -T "ARTIST=%artist%" -T "TITLE=%title%" -T "ALBUM=%albumtitle%" -T "DATE=%year%" -T "TRACKNUMBER=%tracknr%" -T "GENRE=%genre%" -T "PERFORMER=%albuminterpret%" -T "COMPOSER=%composer%" %haslyrics%--tag-from-file=LYRICS="%lyricsfile%"%haslyrics% -T "ALBUMARTIST=%albumartist%" -T "DISCNUMBER=%cdnumber%" -T "TOTALDISCS=%totalcds%" -T "TOTALTRACKS=%numtracks%" -T "COMMENT=%comment%" %source% -o %dest%
TOC of the extracted CD
Track | Start | Length | Start sector | End sector
---------------------------------------------------------
1 | 0:00.00 | 9:10.33 | 0 | 41282
2 | 9:10.33 | 18:17.42 | 41283 | 123599
3 | 27:28.00 | 14:39.72 | 123600 | 189596
Track 1
Filename Y:\What Me\Peter Brotzmann and Jason Adasiewicz - Going All Fancy (2012) [FLAC]\01 - Going All Fancy.wav
Pre-gap length 0:00:02.00
Peak level 100.0 %
Extraction speed 1.9 X
Track quality 99.9 %
Test CRC 418BF9C3
Copy CRC 418BF9C3
Track not present in AccurateRip database
Copy OK
Track 2
Filename Y:\What Me\Peter Brotzmann and Jason Adasiewicz - Going All Fancy (2012) [FLAC]\02 - Left Luggage.wav
Pre-gap length 0:00:07.26
Peak level 81.1 %
Extraction speed 2.6 X
Track quality 99.9 %
Test CRC F6146002
Copy CRC F6146002
Track not present in AccurateRip database
Copy OK
Track 3
Filename Y:\What Me\Peter Brotzmann and Jason Adasiewicz - Going All Fancy (2012) [FLAC]\03 - Singing to the Leaf.wav
Pre-gap length 0:00:06.62
Peak level 85.7 %
Extraction speed 3.4 X
Track quality 100.0 %
Test CRC 40A37575
Copy CRC 40A37575
Track not present in AccurateRip database
Copy OK
None of the tracks are present in the AccurateRip database
No errors occurred
End of status report
---- CUETools DB Plugin V2.1.3
[CTDB TOCID: .EMYppAfDz8toPVsa1Sl.NDnegs-] disk not present in database, Submit result: .EMYppAfDz8toPVsa1Sl.NDnegs- has been uploaded
==== Log checksum 5C7A07F95A07CB2EB1BA426146E3C6C997A0CF00117664FD1DD39A332E53C4FA ====
 
Содержание индексной карты (.CUE)
REM GENRE Jazz
REM DATE 2012
REM DISCID 1A09DF03
REM COMMENT "ExactAudioCopy v1.0b3"
PERFORMER "Peter Brцtzmann and Jason Adasiewicz"
TITLE "Going All Fancy"
FILE "01 - Going All Fancy.wav" WAVE
TRACK 01 AUDIO
TITLE "Going All Fancy"
PERFORMER "Peter Brцtzmann and Jason Adasiewicz"
INDEX 01 00:00:00
TRACK 02 AUDIO
TITLE "Left Luggage"
PERFORMER "Peter Brцtzmann and Jason Adasiewicz"
INDEX 00 09:03:13
FILE "02 - Left Luggage.wav" WAVE
INDEX 01 00:00:00
TRACK 03 AUDIO
TITLE "Singing to the Leaf"
PERFORMER "Peter Brцtzmann and Jason Adasiewicz"
INDEX 00 18:10:70
FILE "03 - Singing to the Leaf.wav" WAVE
INDEX 01 00:00:00
Доп. информация: Recorded 08 June 2011 Abrons Art Center, NYC.
 
Состав
Alto Saxophone, Tenor Saxophone, Clarinet [B-Flat], Tarogato – Peter Brotzmann
Vibraphone – Jason Adasiewicz
По всем вопросам пишите личное сообщение пользователю M0p94ok.
04:16
180
Нет комментариев. Ваш будет первым!