Вы используете незарегистрированную версию компонента "Вкладки"!

Поиск

(Free Improvisation) Mike Osborne - Shapes - 1995, FLAC (tracks+.cue), lossless

(Free Improvisation) Mike Osborne - Shapes - 1995, FLAC (tracks+.cue), lossless
Треклист:
Mike Osborne - Shapes
Жанр: Free Improvisation
Страна-производитель диска: Great Britain
Год издания: 1995
Издатель (лейбл): FMR Records
Номер по каталогу: FMRCD10-021995
Аудиокодек: FLAC (*.flac)
Тип рипа: tracks+.cue
Битрейт аудио: lossless
Продолжительность: 40:17
Источник (релизер): собственный рип с оригинального диска.
Наличие сканов в содержимом раздачи: да
Треклист:
01. Shapes Parts 1 & 2 19:40
02. Straight Jack 7:05
03. Double It 14:00
 
Лог создания рипа
Exact Audio Copy V1.0 beta 3 from 29. August 2011
EAC extraction logfile from 15. September 2012, 11:51
Mike Osborne / Shapes
Used drive : TSSTcorpCDDVDW SH-S222A Adapter: 1 ID: 0
Read mode : Secure
Utilize accurate stream : Yes
Defeat audio cache : Yes
Make use of C2 pointers : No
Read offset correction : 6
Overread into Lead-In and Lead-Out : No
Fill up missing offset samples with silence : Yes
Delete leading and trailing silent blocks : No
Null samples used in CRC calculations : Yes
Used interface : Native Win32 interface for Win NT & 2000
Gap handling : Appended to previous track
Used output format : User Defined Encoder
Selected bitrate : 1024 kBit/s
Quality : High
Add ID3 tag : No
Command line compressor : C:\Tool\CD\EAC10\FLAC\FLAC.EXE
Additional command line options : -8 -V -T "ARTIST=%artist%" -T "TITLE=%title%" -T "ALBUM=%albumtitle%" -T "DATE=%year%" -T "TRACKNUMBER=%tracknr%" -T "GENRE=%genre%" -T "PERFORMER=%albuminterpret%" -T "COMPOSER=%composer%" %haslyrics%--tag-from-file=LYRICS="%lyricsfile%"%haslyrics% -T "ALBUMARTIST=%albumartist%" -T "ALBUM ARTIST=%albumartist%" -T "DISCNUMBER=%cdnumber%" -T "TOTALDISCS=%totalcds%" -T "TOTALTRACKS=%numtracks%" -T "COMMENT=EAC V1.0 beta 3, Secure Mode, Test & Copy, AccurateRip, FLAC -8" %source% -o %dest%
TOC of the extracted CD
Track | Start | Length | Start sector | End sector
---------------------------------------------------------
1 | 0:00.00 | 19:50.07 | 0 | 89256
2 | 19:50.07 | 7:12.55 | 89257 | 121711
3 | 27:02.62 | 13:15.13 | 121712 | 181349
Track 1
Filename C:\! UPLOAD\Mike Osborne - Shapes (1995) [FLAC] {FMR}\01 - Shapes - Part 1 & 2.wav
Pre-gap length 0:00:02.00
Peak level 56.3 %
Extraction speed 3.2 X
Track quality 100.0 %
Test CRC 0CFAB50E
Copy CRC 0CFAB50E
Cannot be verified as accurate (confidence 2) [2C361357], AccurateRip returned [D6A4B93D] (AR v2)
Copy OK
Track 2
Filename C:\! UPLOAD\Mike Osborne - Shapes (1995) [FLAC] {FMR}\02 - Straight Jack.wav
Pre-gap length 0:00:02.00
Peak level 56.5 %
Extraction speed 3.4 X
Track quality 100.0 %
Test CRC 415AEED7
Copy CRC 415AEED7
Cannot be verified as accurate (confidence 2) [89DE44A3], AccurateRip returned [36D53FEE] (AR v2)
Copy OK
Track 3
Filename C:\! UPLOAD\Mike Osborne - Shapes (1995) [FLAC] {FMR}\03 - Double It.wav
Pre-gap length 0:00:02.00
Peak level 56.9 %
Extraction speed 3.4 X
Track quality 99.9 %
Test CRC EAE2D89C
Copy CRC EAE2D89C
Cannot be verified as accurate (confidence 2) [5592E7EA], AccurateRip returned [E7955FAC] (AR v2)
Copy OK
No tracks could be verified as accurate
You may have a different pressing from the one(s) in the database
No errors occurred
End of status report
---- CUETools DB Plugin V2.1.3
[CTDB TOCID: KQI5ptqrK9z_PnG2cjYbTQZV4jM-] disk not present in database, Submit result: KQI5ptqrK9z_PnG2cjYbTQZV4jM- has been uploaded
==== Log checksum 8DB7AF21CA5033780C4BA5E63BABA3D53DE3E72C1B2EE1F7ED52E19325E0FA3B ====
 
Содержание индексной карты (.CUE)
REM GENRE "Free Jazz"
REM DATE 1995
REM DISCID 1C097203
REM COMMENT "ExactAudioCopy v1.0b3"
CATALOG 0000000000000
PERFORMER "Mike Osborne"
TITLE "Shapes"
FILE "01 - Shapes - Part 1 & 2.wav" WAVE
TRACK 01 AUDIO
TITLE "Shapes - Part 1 & 2"
PERFORMER "Mike Osborne"
INDEX 01 00:00:00
TRACK 02 AUDIO
TITLE "Straight Jack"
PERFORMER "Mike Osborne"
INDEX 00 19:48:07
FILE "02 - Straight Jack.wav" WAVE
INDEX 01 00:00:00
TRACK 03 AUDIO
TITLE "Double It"
PERFORMER "Mike Osborne"
INDEX 00 07:10:55
FILE "03 - Double It.wav" WAVE
INDEX 01 00:00:00
Доп. информация:
Recorded at Pye Studios in February 1972
 
Об альбоме (сборнике)
Alto saxophonist Mike Osborne was among the premier exponents of the British jazz resurgence of the mid-'60s. A supremely skilled and inventive player, the scope of his art was criminally compromised by a long battle with mental illness.
Often praised as "the Jackie McLean of Britain," Osborne channeled his affection and knowledge of the post-bop idiom into a distinctively cerebral and incendiary approach all his own.
 
Состав
Mike Osborne - alto saxophone
John Surman - soprano, baritone saxophone
Alan Skidmore - tenor saxophone
Harry Miller - bass
Earl Freeman - bass
Louis Moholo - drums
Any questions -> support@pro-jazz.com. По всем вопросам пишите -> support@pro-jazz.com
04:17
151
Нет комментариев. Ваш будет первым!